Rss
Calendar
«    January 2019    »
MonTueWedThuFriSatSun
 123456
78910111213
14151617181920
21222324252627
28293031 
Friends of the site
» » NOTA (2018) Tamil Original - Proper - 1080p - HQ WEB-HD - AVC - AAC - ESubs-MTR
  • Author: wroser
  • |
  • Comments: 0
  • |
  • Views: 43
NOTA (2018) Tamil Original - Proper - 1080p - HQ WEB-HD - AVC - AAC - ESubs-MTR





Format                      : Matroska
Format version              : Version 4 / Version 2
File size                   : 6.90 GiB
Duration                    : 2 h 24 min
Overall bit rate mode       : Variable
Overall bit rate            : 6 847 kb/s
Encoded date                : UTC 2018-12-18 14:24:34
Writing application         : mkvmerge v29.0.0 ('Like It Or Not') 32-bit
Writing library             : libebml v1.3.6 + libmatroska v1.4.9

Video
ID                          : 1
Format                      : AVC
Format/Info                 : Advanced Video Codec
Format profile              : High@L4
Format settings, CABAC      : Yes
Format settings, RefFrames  : 4 frames
Codec ID                    : V_MPEG4/ISO/AVC
Duration                    : 2 h 24 min
Bit rate mode               : Variable
Bit rate                    : 6 720 kb/s
Maximum bit rate            : 15.0 Mb/s
Width                       : 1 920 pixels
Height                      : 816 pixels
Display aspect ratio        : 2.35:1
Frame rate mode             : Constant
Frame rate                  : 24.000 FPS
Color space                 : YUV
Chroma subsampling          : 4:2:0
Bit depth                   : 8 bits
Scan type                   : Progressive
Bits/(Pixel*Frame)          : 0.179
Stream size                 : 6.77 GiB (98%)
Language                    : English
Default                     : Yes
Forced                      : No
Color range                 : Limited
Color primaries             : BT.709
Transfer characteristics    : BT.709
Matrix coefficients         : BT.709

Audio
ID                          : 2
Format                      : MPEG Audio
Format version              : Version 1
Format profile              : Layer 3
Mode                        : Joint stereo
Mode extension              : MS Stereo
Codec ID                    : A_MPEG/L3
Codec ID/Hint               : MP3
Duration                    : 2 h 24 min
Bit rate mode               : Variable
Bit rate                    : 128 kb/s
Channel(s)                  : 2 channels
Sampling rate               : 48.0 kHz
Frame rate                  : 41.667 FPS (1152 SPF)
Compression mode            : Lossy
Stream size                 : 129 MiB (2%)
Writing library             : LAME3.99r
Encoding settings           : -m j -V 4 -q 3 -lowpass 17 --abr 128
Language                    : English
Default                     : Yes
Forced                      : No

Text
ID                          : 3
Format                      : UTF-8
Codec ID                    : S_TEXT/UTF8
Codec ID/Info               : UTF-8 Plain Text
Duration                    : 2 h 20 min
Bit rate                    : 84 b/s
Count of elements           : 2398
Stream size                 : 87.0 KiB (0%)
Language                    : English
Default                     : No
Forced                      : No



NOTA (2018) Tamil Original - Proper - 1080p - HQ WEB-HD - AVC - AAC - ESubs-MTRNOTA (2018) Tamil Original - Proper - 1080p - HQ WEB-HD - AVC - AAC - ESubs-MTRNOTA (2018) Tamil Original - Proper - 1080p - HQ WEB-HD - AVC - AAC - ESubs-MTRNOTA (2018) Tamil Original - Proper - 1080p - HQ WEB-HD - AVC - AAC - ESubs-MTRNOTA (2018) Tamil Original - Proper - 1080p - HQ WEB-HD - AVC - AAC - ESubs-MTRNOTA (2018) Tamil Original - Proper - 1080p - HQ WEB-HD - AVC - AAC - ESubs-MTRNOTA (2018) Tamil Original - Proper - 1080p - HQ WEB-HD - AVC - AAC - ESubs-MTRNOTA (2018) Tamil Original - Proper - 1080p - HQ WEB-HD - AVC - AAC - ESubs-MTRNOTA (2018) Tamil Original - Proper - 1080p - HQ WEB-HD - AVC - AAC - ESubs-MTR

SINGLE DIRECT FAST LINKS

https://www.heroupload.us/d1b5d1f4cdc35d8c/NOTA.2018.Tamil.Original.Audio.1080p.Proper.HD.AVC.x264.ESubs-MTR.mkv


1GB LINKS


https://www.heroupload.us/35446eded9d424ed/NOTA.2018.Tamil.Original.Audio.1080p.Proper.HD.AVC.x264.ESubs-MTR.part1.rar
https://www.heroupload.us/98235c1436088602/NOTA.2018.Tamil.Original.Audio.1080p.Proper.HD.AVC.x264.ESubs-MTR.part2.rar
https://www.heroupload.us/9df09aefd613aabd/NOTA.2018.Tamil.Original.Audio.1080p.Proper.HD.AVC.x264.ESubs-MTR.part3.rar
https://www.heroupload.us/061b2da43509482e/NOTA.2018.Tamil.Original.Audio.1080p.Proper.HD.AVC.x264.ESubs-MTR.part4.rar
https://www.heroupload.us/99edf61979ab81cf/NOTA.2018.Tamil.Original.Audio.1080p.Proper.HD.AVC.x264.ESubs-MTR.part5.rar
https://www.heroupload.us/e308b94a57131074/NOTA.2018.Tamil.Original.Audio.1080p.Proper.HD.AVC.x264.ESubs-MTR.part6.rar
https://www.heroupload.us/1eb11e75258606f6/NOTA.2018.Tamil.Original.Audio.1080p.Proper.HD.AVC.x264.ESubs-MTR.part7.rar



Buy Premium From My Links & Support Me

Add a comment

Name:* E-Mail:*
Bold Italic Underline Strike | Align left Center Align right | Insert smilies Insert link URLInsert protected URL Select color | Add Hidden Text Insert Quote Convert selected text from selection to Cyrillic (Russian) alphabet Insert spoiler
Enter the code below: *