Rss
Calendar
«    January 2019    »
MonTueWedThuFriSatSun
 123456
78910111213
14151617181920
21222324252627
28293031 
Friends of the site
» » Inba Twinkle Lilly (2018) Tamil - 1080p - WEB-DL - AVC - AAC-TMV
  • Author: wroser
  • |
  • Comments: 0
  • |
  • Views: 25
Inba Twinkle Lilly (2018) Tamil - 1080p - WEB-DL - AVC - AAC-TMV





Format                                   : MPEG-4
Format profile                           : Base Media
Codec ID                                 : isom (isom/iso2/avc1/mp41)
File size                                : 2.84 GiB
Duration                                 : 2 h 14 min
Overall bit rate                         : 3 022 kb/s
Writing application                      : Lavf58.20.100

Video
ID                                       : 1
Format                                   : AVC
Format/Info                              : Advanced Video Codec
Format profile                           : Main@L4
Format settings                          : CABAC / 4 Ref Frames
Format settings, CABAC                   : Yes
Format settings, RefFrames               : 4 frames
Codec ID                                 : avc1
Codec ID/Info                            : Advanced Video Coding
Duration                                 : 2 h 14 min
Bit rate                                 : 2 888 kb/s
Width                                    : 1 920 pixels
Height                                   : 1 080 pixels
Display aspect ratio                     : 16:9
Frame rate mode                          : Constant
Frame rate                               : 25.000 FPS
Standard                                 : Component
Color space                              : YUV
Chroma subsampling                       : 4:2:0
Bit depth                                : 8 bits
Scan type                                : Progressive
Bits/(Pixel*Frame)                       : 0.056
Stream size                              : 2.71 GiB (96%)
Language                                 : Tamil
Color range                              : Limited
Color primaries                          : BT.709
Transfer characteristics                 : BT.709
Matrix coefficients                      : BT.709
Codec configuration box                  : avcC

Audio
ID                                       : 2
Format                                   : AAC LC
Format/Info                              : Advanced Audio Codec Low Complexity
Codec ID                                 : mp4a-40-2
Duration                                 : 2 h 14 min
Bit rate mode                            : Constant
Bit rate                                 : 127 kb/s
Channel(s)                               : 2 channels
Channel layout                           : L R
Sampling rate                            : 48.0 kHz
Frame rate                               : 46.875 FPS (1024 SPF)
Compression mode                         : Lossy
Stream size                              : 123 MiB (4%)
Language                                 : Tamil
Default                                  : Yes
Alternate group                          : 1



Inba Twinkle Lilly (2018) Tamil - 1080p - WEB-DL - AVC - AAC-TMVInba Twinkle Lilly (2018) Tamil - 1080p - WEB-DL - AVC - AAC-TMVInba Twinkle Lilly (2018) Tamil - 1080p - WEB-DL - AVC - AAC-TMVInba Twinkle Lilly (2018) Tamil - 1080p - WEB-DL - AVC - AAC-TMVInba Twinkle Lilly (2018) Tamil - 1080p - WEB-DL - AVC - AAC-TMVInba Twinkle Lilly (2018) Tamil - 1080p - WEB-DL - AVC - AAC-TMVInba Twinkle Lilly (2018) Tamil - 1080p - WEB-DL - AVC - AAC-TMVInba Twinkle Lilly (2018) Tamil - 1080p - WEB-DL - AVC - AAC-TMVInba Twinkle Lilly (2018) Tamil - 1080p - WEB-DL - AVC - AAC-TMVInba Twinkle Lilly (2018) Tamil - 1080p - WEB-DL - AVC - AAC-TMV


SINGLE DIRECT FAST LINKS

https://www.heroupload.com/6e44b3732b20ce47/Inba.Twinkle.Lilly.2018.Tamil.Proper.True.WEB-DL.1080p.UNTOUCHED.AVC.AAC-TMV.mp4


700MB LINKS



https://www.heroupload.com/e720e736b2027fc1/Inba.Twinkle.Lilly.2018.Tamil.Proper.True.WEB-DL.1080p.UNTOUCHED.AVC.AAC-TMV.part1.rar
https://www.heroupload.com/38bcecb76d89808e/Inba.Twinkle.Lilly.2018.Tamil.Proper.True.WEB-DL.1080p.UNTOUCHED.AVC.AAC-TMV.part2.rar
https://www.heroupload.com/deba8d23394a1e88/Inba.Twinkle.Lilly.2018.Tamil.Proper.True.WEB-DL.1080p.UNTOUCHED.AVC.AAC-TMV.part3.rar
https://www.heroupload.com/6870b38a446cbb6d/Inba.Twinkle.Lilly.2018.Tamil.Proper.True.WEB-DL.1080p.UNTOUCHED.AVC.AAC-TMV.part4.rar
https://www.heroupload.com/93519929c4eb15f4/Inba.Twinkle.Lilly.2018.Tamil.Proper.True.WEB-DL.1080p.UNTOUCHED.AVC.AAC-TMV.part5.rar


Buy Premium From My Links & Support Me

Add a comment

Name:* E-Mail:*
Bold Italic Underline Strike | Align left Center Align right | Insert smilies Insert link URLInsert protected URL Select color | Add Hidden Text Insert Quote Convert selected text from selection to Cyrillic (Russian) alphabet Insert spoiler
Enter the code below: *