Rss
Calendar
«    January 2019    »
MonTueWedThuFriSatSun
 123456
78910111213
14151617181920
21222324252627
28293031 
Friends of the site
» » Thugs of Hindostan (2018) Tamil - WEB-DL - 1080p - AVC - DDP5.1- Msub [DDR-Exclusive]
  • Author: wroser
  • |
  • Comments: 0
  • |
  • Views: 27
Thugs of Hindostan (2018) Tamil - WEB-DL - 1080p - AVC - DDP5.1- Msub [DDR-Exclusive]





Format                                   : Matroska
Format version                           : Version 4
File size                                : 7.60 GiB
Duration                                 : 2 h 44 min
Overall bit rate                         : 6 631 kb/s
Encoded date                             : UTC 2019-01-03 20:43:56
Writing application                      : mkvmerge v29.0.0 ('Like It Or Not') 32-bit
Writing library                          : libebml v1.3.6 + libmatroska v1.4.9

Video
ID                                       : 1
Format                                   : AVC
Format/Info                              : Advanced Video Codec
Format profile                           : High@L4
Format settings                          : CABAC / 4 Ref Frames
Format settings, CABAC                   : Yes
Format settings, RefFrames               : 4 frames
Codec ID                                 : V_MPEG4/ISO/AVC
Duration                                 : 2 h 44 min
Bit rate                                 : 5 989 kb/s
Width                                    : 1 920 pixels
Height                                   : 816 pixels
Display aspect ratio                     : 2.35:1
Frame rate mode                          : Constant
Frame rate                               : 24.000 FPS
Color space                              : YUV
Chroma subsampling                       : 4:2:0
Bit depth                                : 8 bits
Scan type                                : Progressive
Bits/(Pixel*Frame)                       : 0.159
Stream size                              : 6.87 GiB (90%)
Language                                 : Tamil
Default                                  : Yes
Forced                                   : No
Color range                              : Limited
Color primaries                          : BT.709
Transfer characteristics                 : BT.709
Matrix coefficients                      : BT.709

Audio
ID                                       : 2
Format                                   : E-AC-3
Format/Info                              : Enhanced AC-3
Commercial name                          : Dolby Digital Plus
Codec ID                                 : A_EAC3
Duration                                 : 2 h 44 min
Bit rate mode                            : Constant
Bit rate                                 : 640 kb/s
Channel(s)                               : 6 channels
Channel layout                           : L R C LFE Ls Rs
Sampling rate                            : 48.0 kHz
Frame rate                               : 31.250 FPS (1536 SPF)
Compression mode                         : Lossy
Stream size                              : 751 MiB (10%)
Language                                 : Tamil
Service kind                             : Complete Main
Default                                  : No
Forced                                   : No

Text #1
ID                                       : 3
Format                                   : UTF-8
Codec ID                                 : S_TEXT/UTF8
Codec ID/Info                            : UTF-8 Plain Text
Duration                                 : 2 h 36 min
Bit rate                                 : 34 b/s
Count of elements                        : 1277
Stream size                              : 39.1 KiB (0%)
Language                                 : English
Default                                  : No
Forced                                   : No

Text #2
ID                                       : 4
Format                                   : UTF-8
Codec ID                                 : S_TEXT/UTF8
Codec ID/Info                            : UTF-8 Plain Text
Duration                                 : 2 h 36 min
Bit rate                                 : 38 b/s
Count of elements                        : 1285
Stream size                              : 44.2 KiB (0%)
Language                                 : Spanish
Default                                  : No
Forced                                   : No

Text #3
ID                                       : 5
Format                                   : UTF-8
Codec ID                                 : S_TEXT/UTF8
Codec ID/Info                            : UTF-8 Plain Text
Duration                                 : 2 h 36 min
Bit rate                                 : 37 b/s
Count of elements                        : 1285
Stream size                              : 43.7 KiB (0%)
Language                                 : French
Default                                  : No
Forced                                   : No

Text #4
ID                                       : 6
Format                                   : UTF-8
Codec ID                                 : S_TEXT/UTF8
Codec ID/Info                            : UTF-8 Plain Text
Duration                                 : 2 h 36 min
Bit rate                                 : 52 b/s
Count of elements                        : 1285
Stream size                              : 60.1 KiB (0%)
Language                                 : Arabic
Default                                  : No
Forced                                   : No




Thugs of Hindostan (2018) Tamil - WEB-DL - 1080p - AVC - DDP5.1- Msub [DDR-Exclusive]Thugs of Hindostan (2018) Tamil - WEB-DL - 1080p - AVC - DDP5.1- Msub [DDR-Exclusive]Thugs of Hindostan (2018) Tamil - WEB-DL - 1080p - AVC - DDP5.1- Msub [DDR-Exclusive]Thugs of Hindostan (2018) Tamil - WEB-DL - 1080p - AVC - DDP5.1- Msub [DDR-Exclusive]Thugs of Hindostan (2018) Tamil - WEB-DL - 1080p - AVC - DDP5.1- Msub [DDR-Exclusive]Thugs of Hindostan (2018) Tamil - WEB-DL - 1080p - AVC - DDP5.1- Msub [DDR-Exclusive]Thugs of Hindostan (2018) Tamil - WEB-DL - 1080p - AVC - DDP5.1- Msub [DDR-Exclusive]Thugs of Hindostan (2018) Tamil - WEB-DL - 1080p - AVC - DDP5.1- Msub [DDR-Exclusive]Thugs of Hindostan (2018) Tamil - WEB-DL - 1080p - AVC - DDP5.1- Msub [DDR-Exclusive]Thugs of Hindostan (2018) Tamil - WEB-DL - 1080p - AVC - DDP5.1- Msub [DDR-Exclusive]Thugs of Hindostan (2018) Tamil - WEB-DL - 1080p - AVC - DDP5.1- Msub [DDR-Exclusive]


SINGLE DIRECT FAST LINKS

https://www.heroupload.com/abd32e283e89dc42/Thugs.of.Hindostan.2018.Tamil.WEB-DL.1080p.UNTOUCHED.AVC.DD5.1.MSub-DDR.mkv


1GB LINKS



https://www.heroupload.com/5790b0758f23849c/Thugs.of.Hindostan.2018.Tamil.WEB-DL.1080p.UNTOUCHED.AVC.DD5.1.MSub-DDR.part1.rar
https://www.heroupload.com/a1f982253ea522a6/Thugs.of.Hindostan.2018.Tamil.WEB-DL.1080p.UNTOUCHED.AVC.DD5.1.MSub-DDR.part2.rar
https://www.heroupload.com/668a753a22135fda/Thugs.of.Hindostan.2018.Tamil.WEB-DL.1080p.UNTOUCHED.AVC.DD5.1.MSub-DDR.part3.rar
https://www.heroupload.com/36f465d60a17272f/Thugs.of.Hindostan.2018.Tamil.WEB-DL.1080p.UNTOUCHED.AVC.DD5.1.MSub-DDR.part4.rar
https://www.heroupload.com/d200f75fe97d419a/Thugs.of.Hindostan.2018.Tamil.WEB-DL.1080p.UNTOUCHED.AVC.DD5.1.MSub-DDR.part5.rar
https://www.heroupload.com/3805164362f84e15/Thugs.of.Hindostan.2018.Tamil.WEB-DL.1080p.UNTOUCHED.AVC.DD5.1.MSub-DDR.part6.rar
https://www.heroupload.com/476cd37f40c30051/Thugs.of.Hindostan.2018.Tamil.WEB-DL.1080p.UNTOUCHED.AVC.DD5.1.MSub-DDR.part7.rar
https://www.heroupload.com/29047a001fa27c5b/Thugs.of.Hindostan.2018.Tamil.WEB-DL.1080p.UNTOUCHED.AVC.DD5.1.MSub-DDR.part8.rar


Buy Premium From My Links & Support Me

Add a comment

Name:* E-Mail:*
Bold Italic Underline Strike | Align left Center Align right | Insert smilies Insert link URLInsert protected URL Select color | Add Hidden Text Insert Quote Convert selected text from selection to Cyrillic (Russian) alphabet Insert spoiler
Enter the code below: *