Rss
Calendar
«    January 2019    »
MonTueWedThuFriSatSun
 123456
78910111213
14151617181920
21222324252627
28293031 
Friends of the site
» » Sammohanam (2018) Telugu - 1080p - HDTV - UNTOUCHED - AVC - AAC-TMV
  • Author: wroser
  • |
  • Comments: 0
  • |
  • Views: 27
Sammohanam (2018) Telugu - 1080p - HDTV - UNTOUCHED - AVC - AAC-TMV






Format                                   : MPEG-4
Format profile                           : Base Media
Codec ID                                 : isom (isom/iso2/avc1/mp41)
File size                                : 2.89 GiB
Duration                                 : 2 h 11 min
Overall bit rate mode                    : Variable
Overall bit rate                         : 3 136 kb/s
Writing application                      : Lavf57.71.100

Video
ID                                       : 1
Format                                   : AVC
Format/Info                              : Advanced Video Codec
Format profile                           : High@L4
Format settings                          : CABAC / 4 Ref Frames
Format settings, CABAC                   : Yes
Format settings, RefFrames               : 4 frames
Codec ID                                 : avc1
Codec ID/Info                            : Advanced Video Coding
Duration                                 : 2 h 11 min
Bit rate                                 : 3 000 kb/s
Width                                    : 1 920 pixels
Height                                   : 1 080 pixels
Display aspect ratio                     : 16:9
Frame rate mode                          : Variable
Frame rate                               : 25.000 FPS
Minimum frame rate                       : 6.241 FPS
Maximum frame rate                       : 25.000 FPS
Color space                              : YUV
Chroma subsampling                       : 4:2:0
Bit depth                                : 8 bits
Scan type                                : Progressive
Bits/(Pixel*Frame)                       : 0.058
Stream size                              : 2.76 GiB (96%)
Writing library                          : x264 core 155 r2901 7d0ff22
Encoding settings                        : cabac=1 / ref=2 / deblock=1:0:0 / analyse=0x3:0x113 / me=hex / subme=6 / psy=1 / psy_rd=1.00:0.00 / mixed_ref=1 / me_range=16 / chroma_me=1 / trellis=1 / 8x8dct=1 / cqm=0 / deadzone=21,11 / fast_pskip=1 / chroma_qp_offset=-2 / threads=34 / lookahead_threads=5 / sliced_threads=0 / nr=0 / decimate=1 / interlaced=0 / bluray_compat=0 / constrained_intra=0 / bframes=3 / b_pyramid=2 / b_adapt=1 / b_bias=0 / direct=1 / weightb=1 / open_gop=0 / weightp=1 / keyint=250 / keyint_min=25 / scenecut=40 / intra_refresh=0 / rc_lookahead=30 / rc=abr / mbtree=1 / bitrate=3000 / ratetol=1.0 / qcomp=0.60 / qpmin=0 / qpmax=69 / qpstep=4 / vbv_maxrate=25000 / vbv_bufsize=31250 / nal_hrd=none / filler=0 / ip_ratio=1.40 / aq=1:1.00
Color range                              : Limited
Color primaries                          : BT.709
Transfer characteristics                 : BT.709
Matrix coefficients                      : BT.709
Codec configuration box                  : avcC

Audio
ID                                       : 2
Format                                   : AAC LC
Format/Info                              : Advanced Audio Codec Low Complexity
Codec ID                                 : mp4a-40-2
Duration                                 : 2 h 11 min
Bit rate mode                            : Variable
Bit rate                                 : 126 kb/s
Maximum bit rate                         : 128 kb/s
Channel(s)                               : 2 channels
Channel layout                           : L R
Sampling rate                            : 44.1 kHz
Frame rate                               : 43.066 FPS (1024 SPF)
Compression mode                         : Lossy
Stream size                              : 118 MiB (4%)
Default                                  : Yes
Alternate group                          : 1



Sammohanam (2018) Telugu - 1080p - HDTV - UNTOUCHED - AVC - AAC-TMVSammohanam (2018) Telugu - 1080p - HDTV - UNTOUCHED - AVC - AAC-TMVSammohanam (2018) Telugu - 1080p - HDTV - UNTOUCHED - AVC - AAC-TMVSammohanam (2018) Telugu - 1080p - HDTV - UNTOUCHED - AVC - AAC-TMVSammohanam (2018) Telugu - 1080p - HDTV - UNTOUCHED - AVC - AAC-TMV


SINGLE DIRECT FAST LINKS

https://www.heroupload.com/30cc32ff5cf0275f/Sammohanam.2018.Telugu.HDTV.1080p.UNTOCUHED.AVC.AAC-TMV.mp4


700MB LINKS


https://www.heroupload.com/0807fe820061f0bb/Sammohanam.2018.Telugu.HDTV.1080p.UNTOCUHED.AVC.AAC-TMV.part1.rar
https://www.heroupload.com/239b94d58872e66f/Sammohanam.2018.Telugu.HDTV.1080p.UNTOCUHED.AVC.AAC-TMV.part2.rar
https://www.heroupload.com/b4f8d2d8db6ad893/Sammohanam.2018.Telugu.HDTV.1080p.UNTOCUHED.AVC.AAC-TMV.part3.rar
https://www.heroupload.com/90744caed1decff9/Sammohanam.2018.Telugu.HDTV.1080p.UNTOCUHED.AVC.AAC-TMV.part4.rar
https://www.heroupload.com/bd4144ce285d08a5/Sammohanam.2018.Telugu.HDTV.1080p.UNTOCUHED.AVC.AAC-TMV.part5.rar



Buy Premium From My Links & Support Me

Add a comment

Name:* E-Mail:*
Bold Italic Underline Strike | Align left Center Align right | Insert smilies Insert link URLInsert protected URL Select color | Add Hidden Text Insert Quote Convert selected text from selection to Cyrillic (Russian) alphabet Insert spoiler
Enter the code below: *