Rss
Calendar
«    February 2019    »
MonTueWedThuFriSatSun
 123
45678910
11121314151617
18192021222324
25262728 
Friends of the site
» » Maari 2 (2018) Tamil - 1080p - HDRip - x264 - DD5.1 - Esubs-MTR
  • Author: wroser
  • |
  • Comments: 0
  • |
  • Views: 33
Maari 2 (2018) Tamil - 1080p - HDRip - x264 - DD5.1 - Esubs-MTR




Format                                   : Matroska
Format version                           : Version 4
File size                                : 3.02 GiB
Duration                                 : 2 h 22 min
Overall bit rate                         : 3 045 kb/s
Encoded date                             : UTC 2019-02-01 09:48:41
Writing application                      : mkvmerge v29.0.0 ('Like It Or Not') 32-bit
Writing library                          : libebml v1.3.6 + libmatroska v1.4.9

Video
ID                                       : 1
Format                                   : AVC
Format/Info                              : Advanced Video Codec
Format profile                           : High@L4
Format settings                          : CABAC / 4 Ref Frames
Format settings, CABAC                   : Yes
Format settings, RefFrames               : 4 frames
Codec ID                                 : V_MPEG4/ISO/AVC
Duration                                 : 2 h 22 min
Bit rate                                 : 2 916 kb/s
Width                                    : 1 920 pixels
Height                                   : 780 pixels
Display aspect ratio                     : 2.462
Frame rate mode                          : Constant
Frame rate                               : 24.000 FPS
Color space                              : YUV
Chroma subsampling                       : 4:2:0
Bit depth                                : 8 bits
Scan type                                : Progressive
Bits/(Pixel*Frame)                       : 0.081
Stream size                              : 2.90 GiB (96%)
Writing library                          : x264 core 157 r2935 545de2f
Encoding settings                        : cabac=1 / ref=2 / deblock=1:0:0 / analyse=0x3:0x113 / me=hex / subme=4 / psy=1 / psy_rd=1.00:0.00 / mixed_ref=0 / me_range=16 / chroma_me=1 / trellis=1 / 8x8dct=1 / cqm=0 / deadzone=21,11 / fast_pskip=1 / chroma_qp_offset=0 / threads=24 / lookahead_threads=6 / sliced_threads=0 / nr=0 / decimate=1 / interlaced=0 / bluray_compat=0 / constrained_intra=0 / bframes=3 / b_pyramid=2 / b_adapt=1 / b_bias=0 / direct=1 / weightb=1 / open_gop=0 / weightp=1 / keyint=240 / keyint_min=24 / scenecut=40 / intra_refresh=0 / rc_lookahead=20 / rc=abr / mbtree=1 / bitrate=2916 / ratetol=1.0 / qcomp=0.60 / qpmin=0 / qpmax=69 / qpstep=4 / ip_ratio=1.40 / aq=1:1.00
Language                                 : English
Default                                  : Yes
Forced                                   : No

Audio
ID                                       : 2
Format                                   : AC-3
Format/Info                              : Audio Coding 3
Commercial name                          : Dolby Digital
Codec ID                                 : A_AC3
Duration                                 : 2 h 22 min
Bit rate mode                            : Constant
Bit rate                                 : 128 kb/s
Channel(s)                               : 6 channels
Channel layout                           : L R C LFE Ls Rs
Sampling rate                            : 44.1 kHz
Frame rate                               : 28.711 FPS (1536 SPF)
Bit depth                                : 16 bits
Compression mode                         : Lossy
Stream size                              : 130 MiB (4%)
Language                                 : English
Service kind                             : Complete Main
Default                                  : Yes
Forced                                   : No



Maari 2 (2018) Tamil - 1080p - HDRip - x264 - DD5.1 - Esubs-MTRMaari 2 (2018) Tamil - 1080p - HDRip - x264 - DD5.1 - Esubs-MTRMaari 2 (2018) Tamil - 1080p - HDRip - x264 - DD5.1 - Esubs-MTRMaari 2 (2018) Tamil - 1080p - HDRip - x264 - DD5.1 - Esubs-MTR

SINGLE DIRECT FAST LINKS

https://www.heroupload.com/7701bf13aaaafa08/Maari.2.2018.Tamil.1080p.HDRip.x264.DD5.1.ESubs-MTR.mkv


700MB LINKS



https://www.heroupload.com/0b2e56a00d611409/Maari.2.2018.Tamil.1080p.HDRip.x264.DD5.1.ESubs-MTR.part1.rar
https://www.heroupload.com/53848fa65d9fe9f7/Maari.2.2018.Tamil.1080p.HDRip.x264.DD5.1.ESubs-MTR.part2.rar
https://www.heroupload.com/8ac02a102a03edea/Maari.2.2018.Tamil.1080p.HDRip.x264.DD5.1.ESubs-MTR.part3.rar
https://www.heroupload.com/cd8185b7fbb010bd/Maari.2.2018.Tamil.1080p.HDRip.x264.DD5.1.ESubs-MTR.part4.rar
https://www.heroupload.com/be5ef8a57c3415ee/Maari.2.2018.Tamil.1080p.HDRip.x264.DD5.1.ESubs-MTR.part5.rar


Buy Premium From My Links & Support Me

Add a comment

Name:* E-Mail:*
Bold Italic Underline Strike | Align left Center Align right | Insert smilies Insert link URLInsert protected URL Select color | Add Hidden Text Insert Quote Convert selected text from selection to Cyrillic (Russian) alphabet Insert spoiler
Enter the code below: *