Rss
Calendar
«    February 2019    »
MonTueWedThuFriSatSun
 123
45678910
11121314151617
18192021222324
25262728 
Friends of the site
» » K.G.F: Chapter 1 (2018) Tamil - 720p - HDRip - x264 - DD5.1 - ESub-Mrelease
  • Author: wroser
  • |
  • Comments: 0
  • |
  • Views: 24
K.G.F: Chapter 1 (2018) Tamil - 720p - HDRip - x264 - DD5.1 - ESub-Mrelease





Format                                   : Matroska
Format version                           : Version 4
File size                                : 1.39 GiB
Duration                                 : 2 h 34 min
Overall bit rate                         : 1 286 kb/s
Encoded date                             : UTC 2019-02-04 18:37:49
Writing application                      : mkvmerge v29.0.0 ('Like It Or Not') 32-bit
Writing library                          : libebml v1.3.6 + libmatroska v1.4.9

Video
ID                                       : 1
Format                                   : AVC
Format/Info                              : Advanced Video Codec
Format profile                           : High@L3.1
Format settings                          : CABAC / 4 Ref Frames
Format settings, CABAC                   : Yes
Format settings, RefFrames               : 4 frames
Codec ID                                 : V_MPEG4/ISO/AVC
Duration                                 : 2 h 34 min
Bit rate                                 : 1 156 kb/s
Width                                    : 1 280 pixels
Height                                   : 544 pixels
Display aspect ratio                     : 2.35:1
Frame rate mode                          : Constant
Frame rate                               : 25.000 FPS
Color space                              : YUV
Chroma subsampling                       : 4:2:0
Bit depth                                : 8 bits
Scan type                                : Progressive
Bits/(Pixel*Frame)                       : 0.066
Stream size                              : 1.25 GiB (90%)
Writing library                          : x264 core 157 r2935 545de2f
Encoding settings                        : cabac=1 / ref=1 / deblock=1:0:0 / analyse=0x3:0x113 / me=hex / subme=2 / psy=1 / psy_rd=1.00:0.00 / mixed_ref=0 / me_range=16 / chroma_me=1 / trellis=0 / 8x8dct=1 / cqm=0 / deadzone=21,11 / fast_pskip=1 / chroma_qp_offset=0 / threads=17 / lookahead_threads=4 / sliced_threads=0 / nr=0 / decimate=1 / interlaced=0 / bluray_compat=0 / constrained_intra=0 / bframes=3 / b_pyramid=2 / b_adapt=1 / b_bias=0 / direct=1 / weightb=1 / open_gop=0 / weightp=1 / keyint=250 / keyint_min=25 / scenecut=40 / intra_refresh=0 / rc_lookahead=10 / rc=2pass / mbtree=1 / bitrate=1156 / ratetol=1.0 / qcomp=0.60 / qpmin=0 / qpmax=69 / qpstep=4 / cplxblur=20.0 / qblur=0.5 / ip_ratio=1.40 / aq=1:1.00
Language                                 : Tamil
Default                                  : Yes
Forced                                   : No

Audio
ID                                       : 2
Format                                   : AC-3
Format/Info                              : Audio Coding 3
Commercial name                          : Dolby Digital
Codec ID                                 : A_AC3
Duration                                 : 2 h 34 min
Bit rate mode                            : Constant
Bit rate                                 : 128 kb/s
Channel(s)                               : 6 channels
Channel layout                           : L R C LFE Ls Rs
Sampling rate                            : 44.1 kHz
Frame rate                               : 28.711 FPS (1536 SPF)
Bit depth                                : 16 bits
Compression mode                         : Lossy
Stream size                              : 142 MiB (10%)
Language                                 : Tamil
Service kind                             : Complete Main
Default                                  : Yes
Forced                                   : No

Text
ID                                       : 3
Format                                   : UTF-8
Codec ID                                 : S_TEXT/UTF8
Codec ID/Info                            : UTF-8 Plain Text
Duration                                 : 2 h 29 min
Bit rate                                 : 57 b/s
Count of elements                        : 2245
Stream size                              : 62.5 KiB (0%)
Language                                 : English
Default                                  : No
Forced                                   : No




K.G.F: Chapter 1 (2018) Tamil - 720p - HDRip - x264 - DD5.1 - ESub-MreleaseK.G.F: Chapter 1 (2018) Tamil - 720p - HDRip - x264 - DD5.1 - ESub-MreleaseK.G.F: Chapter 1 (2018) Tamil - 720p - HDRip - x264 - DD5.1 - ESub-MreleaseK.G.F: Chapter 1 (2018) Tamil - 720p - HDRip - x264 - DD5.1 - ESub-MreleaseK.G.F: Chapter 1 (2018) Tamil - 720p - HDRip - x264 - DD5.1 - ESub-MreleaseK.G.F: Chapter 1 (2018) Tamil - 720p - HDRip - x264 - DD5.1 - ESub-Mrelease


SINGLE DIRECT FAST LINKS


https://www.heroupload.com/4e07206aa06e9924/K.G.F.2018.Tamil.Org.Vers.HDRip.720p.x264.DD5.1.ESub-Mrelease.mkv




Buy Premium From My Links & Support Me

Add a comment

Name:* E-Mail:*
Bold Italic Underline Strike | Align left Center Align right | Insert smilies Insert link URLInsert protected URL Select color | Add Hidden Text Insert Quote Convert selected text from selection to Cyrillic (Russian) alphabet Insert spoiler
Enter the code below: *