Rss
Calendar
«    February 2019    »
MonTueWedThuFriSatSun
 123
45678910
11121314151617
18192021222324
25262728 
Friends of the site
» » Kuthoosi (2019) Tamil - 1080p - WEB-HD - AVC - DD5.1 - ESubs-MTR
  • Author: wroser
  • |
  • Comments: 0
  • |
  • Views: 12
Kuthoosi (2019) Tamil - 1080p - WEB-HD - AVC - DD5.1 - ESubs-MTR





Format                                   : MPEG-TS
File size                                : 8.26 GiB
Duration                                 : 2 h 7 min
Overall bit rate mode                    : Variable
Overall bit rate                         : 9 242 kb/s
FileExtension_Invalid                    : ts m2t m2s m4t m4s tmf ts tp trp ty

Video
ID                                       : 481 (0x1E1)
Menu ID                                  : 1 (0x1)
Format                                   : AVC
Format/Info                              : Advanced Video Codec
Format profile                           : High@L4
Format settings                          : CABAC / 3 Ref Frames
Format settings, CABAC                   : Yes
Format settings, RefFrames               : 3 frames
Codec ID                                 : 27
Duration                                 : 2 h 7 min
Bit rate mode                            : Constant
Bit rate                                 : 8 500 kb/s
Maximum bit rate                         : 8 970 kb/s
Width                                    : 1 920 pixels
Height                                   : 1 080 pixels
Display aspect ratio                     : 16:9
Frame rate                               : 29.970 (30000/1001) FPS
Color space                              : YUV
Chroma subsampling                       : 4:2:0
Bit depth                                : 8 bits
Scan type                                : Progressive
Bits/(Pixel*Frame)                       : 0.137
Stream size                              : 7.39 GiB (89%)
Color range                              : Limited
Color primaries                          : BT.709
Transfer characteristics                 : BT.709
Matrix coefficients                      : BT.709

Audio
ID                                       : 482 (0x1E2)
Menu ID                                  : 1 (0x1)
Format                                   : AC-3
Format/Info                              : Audio Coding 3
Commercial name                          : Dolby Digital
Codec ID                                 : 129
Duration                                 : 2 h 7 min
Bit rate mode                            : Constant
Bit rate                                 : 512 kb/s
Maximum bit rate                         : 703 kb/s
Channel(s)                               : 6 channels
Channel layout                           : L R C LFE Ls Rs
Sampling rate                            : 48.0 kHz
Frame rate                               : 31.250 FPS (1536 SPF)
Bit depth                                : 16 bits
Compression mode                         : Lossy
Stream size                              : 469 MiB (6%)
Language                                 : English
Service kind                             : Complete Main

Menu
ID                                       : 480 (0x1E0)
Menu ID                                  : 1 (0x1)
Duration                                 : 2 h 7 min
List                                     : 481 (0x1E1) (AVC) / 482 (0x1E2) (AC-3, English)
Language                                 :  / English
Maximum bit rate                         : 9672800


Kuthoosi (2019) Tamil - 1080p - WEB-HD - AVC - DD5.1 - ESubs-MTR
Kuthoosi (2019) Tamil - 1080p - WEB-HD - AVC - DD5.1 - ESubs-MTR
Kuthoosi (2019) Tamil - 1080p - WEB-HD - AVC - DD5.1 - ESubs-MTR
Kuthoosi (2019) Tamil - 1080p - WEB-HD - AVC - DD5.1 - ESubs-MTR
Kuthoosi (2019) Tamil - 1080p - WEB-HD - AVC - DD5.1 - ESubs-MTR
SINGLE DIRECT FAST LINKS

https://www.heroupload.com/7ad047a605b4a159/Kuthoosi.2019.1080p.HD.AVC.MP4.DD5.1.ESubs.Tamil-MTR.mp4


1GB LINKS



https://www.heroupload.com/7c4ec9d9d1ee5e77/Kuthoosi.2019.1080p.HD.AVC.MP4.DD5.1.ESubs.Tamil-MTR.part01.rar
https://www.heroupload.com/8f749e0af7e43bef/Kuthoosi.2019.1080p.HD.AVC.MP4.DD5.1.ESubs.Tamil-MTR.part02.rar
https://www.heroupload.com/c80f4303bdc3c14f/Kuthoosi.2019.1080p.HD.AVC.MP4.DD5.1.ESubs.Tamil-MTR.part03.rar
https://www.heroupload.com/123efdbdde3a3ce3/Kuthoosi.2019.1080p.HD.AVC.MP4.DD5.1.ESubs.Tamil-MTR.part04.rar
https://www.heroupload.com/fc7bffcf1fdc9f43/Kuthoosi.2019.1080p.HD.AVC.MP4.DD5.1.ESubs.Tamil-MTR.part05.rar
https://www.heroupload.com/dd862f8fd6f09338/Kuthoosi.2019.1080p.HD.AVC.MP4.DD5.1.ESubs.Tamil-MTR.part06.rar
https://www.heroupload.com/3de049591fd9d9e1/Kuthoosi.2019.1080p.HD.AVC.MP4.DD5.1.ESubs.Tamil-MTR.part07.rar
https://www.heroupload.com/343330b5e99fbf89/Kuthoosi.2019.1080p.HD.AVC.MP4.DD5.1.ESubs.Tamil-MTR.part08.rar
https://www.heroupload.com/dc98b1b0571caf6d/Kuthoosi.2019.1080p.HD.AVC.MP4.DD5.1.ESubs.Tamil-MTR.part09.rar
https://www.heroupload.com/8b1ac746686d4272/Kuthoosi.2019.1080p.HD.AVC.MP4.DD5.1.ESubs.Tamil-MTR.srt



Buy Premium From My Links & Support Me

Add a comment

Name:* E-Mail:*
Bold Italic Underline Strike | Align left Center Align right | Insert smilies Insert link URLInsert protected URL Select color | Add Hidden Text Insert Quote Convert selected text from selection to Cyrillic (Russian) alphabet Insert spoiler
Enter the code below: *