Rss
Calendar
«    February 2019    »
MonTueWedThuFriSatSun
 123
45678910
11121314151617
18192021222324
25262728 
Friends of the site
» » The Change-Up (2011) UnRated 720p BluRay x264 DD5.1 [Dual Audio][Hindi+English] ExT
  • Author: wroser
  • |
  • Comments: 0
  • |
  • Views: 10
The Change-Up (2011) UnRated 720p BluRay x264 DD5.1 [Dual Audio][Hindi+English] ExT




Movie Info

Format                                   : Matroska
Format version                           : Version 4 / Version 2
File size                                : 1.01 GiB
Duration                                 : 1 h 58 min
Overall bit rate                         : 1 225 kb/s
Movie name                               : ExtraMovies.host - The Change-Up (2011) UnRated 720p BluRay Dual Audio Hindi DD5.1+Eng x264 AAC ESubs
Encoded date                             : UTC 2019-02-09 05:59:40
Writing application                      : mkvmerge v30.1.0 ('Forever And More') 64-bit
Writing library                          : libebml v1.3.6 + libmatroska v1.4.9

Video
ID                                       : 1
Format                                   : AVC
Format/Info                              : Advanced Video Codec
Format profile                           : High@L4.1
Format settings                          : CABAC / 8 Ref Frames
Format settings, CABAC                   : Yes
Format settings, RefFrames               : 8 frames
Codec ID                                 : V_MPEG4/ISO/AVC
Duration                                 : 1 h 58 min
Bit rate                                 : 999 kb/s
Width                                    : 1 280 pixels
Height                                   : 544 pixels
Display aspect ratio                     : 2.35:1
Frame rate mode                          : Constant
Frame rate                               : 23.976 FPS
Color space                              : YUV
Chroma subsampling                       : 4:2:0
Bit depth                                : 8 bits
Scan type                                : Progressive
Bits/(Pixel*Frame)                       : 0.060
Stream size                              : 844 MiB (82%)
Title                                    : ExtraMovies.host
Writing library                          : x264 core 142 r2479 dd79a61
Encoding settings                        : cabac=1 / ref=8 / deblock=1:0:0 / analyse=0x3:0x113 / me=umh / subme=9 / psy=1 / psy_rd=1.00:0.00 / mixed_ref=1 / me_range=16 / chroma_me=1 / trellis=2 / 8x8dct=1 / cqm=0 / deadzone=21,11 / fast_pskip=1 / chroma_qp_offset=-2 / threads=12 / lookahead_threads=1 / sliced_threads=0 / nr=0 / decimate=1 / interlaced=0 / bluray_compat=0 / constrained_intra=0 / bframes=3 / b_pyramid=2 / b_adapt=2 / b_bias=0 / direct=3 / weightb=1 / open_gop=0 / weightp=2 / keyint=240 / keyint_min=24 / scenecut=40 / intra_refresh=0 / rc_lookahead=40 / rc=2pass / mbtree=1 / bitrate=999 / ratetol=1.0 / qcomp=0.60 / qpmin=0 / qpmax=69 / qpstep=4 / cplxblur=20.0 / qblur=0.5 / vbv_maxrate=62500 / vbv_bufsize=78125 / nal_hrd=none / filler=0 / ip_ratio=1.40 / aq=1:1.00
Default                                  : Yes
Forced                                   : No
Color range                              : Limited
Color primaries                          : BT.709
Transfer characteristics                 : BT.709
Matrix coefficients                      : BT.709

Audio #1
ID                                       : 2
Format                                   : AAC
Format/Info                              : Advanced Audio Codec
Format profile                           : HE-AAC / LC
Format settings                          : NBC
Codec ID                                 : A_AAC-5
Duration                                 : 1 h 58 min
Bit rate                                 : 128 kb/s
Channel(s)                               : 6 channels
Channel positions                        : Front: L C R, Side: L R, LFE
Sampling rate                            : 48.0 kHz / 24.0 kHz
Frame rate                               : 23.438 FPS (1024 SPF)
Compression mode                         : Lossy
Stream size                              : 108 MiB (10%)
Title                                    : ExtraMovies.host
Language                                 : Hindi
Default                                  : Yes
Forced                                   : No

Audio #2
ID                                       : 3
Format                                   : AAC
Format/Info                              : Advanced Audio Codec
Format profile                           : HE-AACv2 / HE-AAC / LC
Format settings                          : NBC
Codec ID                                 : A_AAC-2
Duration                                 : 1 h 58 min
Bit rate                                 : 96.0 kb/s
Channel(s)                               : 6 channels
Channel(s)_Original                      : 2 channels / 20 channels / 20 channels
Channel positions                        : Front: L R / Front: 5, Side: 11, Back: 4 / Front: 5, Side: 11, Back: 4
Sampling rate                            : 48.0 kHz / 48.0 kHz / 24.0 kHz
Frame rate                               : 23.438 FPS (1024 SPF)
Compression mode                         : Lossy
Stream size                              : 81.1 MiB (8%)
Title                                    : ExtraMovies.host
Language                                 : English
Default                                  : No
Forced                                   : No

Text
ID                                       : 4
Format                                   : UTF-8
Codec ID                                 : S_TEXT/UTF8
Codec ID/Info                            : UTF-8 Plain Text
Duration                                 : 1 h 53 min
Bit rate                                 : 87 b/s
Count of elements                        : 2353
Stream size                              : 72.9 KiB (0%)
Title                                    : ExtraMovies.host
Language                                 : English
Default                                  : Yes
Forced                                   : No



The Change-Up (2011) UnRated 720p BluRay x264 DD5.1 [Dual Audio][Hindi+English] ExT

The Change-Up (2011) UnRated 720p BluRay x264 DD5.1 [Dual Audio][Hindi+English] ExT

The Change-Up (2011) UnRated 720p BluRay x264 DD5.1 [Dual Audio][Hindi+English] ExT

The Change-Up (2011) UnRated 720p BluRay x264 DD5.1 [Dual Audio][Hindi+English] ExT
SINGLE DIRECT FAST LINKS


https://www.heroupload.com/ee4c8462e6175724/The.Change-Up.2011.UnRated.Dual.Audio.Hindi+DD5.1.720p.BluRay.ESubs-ExT.mkv




Buy Premium From My Links & Support Me

Add a comment

Name:* E-Mail:*
Bold Italic Underline Strike | Align left Center Align right | Insert smilies Insert link URLInsert protected URL Select color | Add Hidden Text Insert Quote Convert selected text from selection to Cyrillic (Russian) alphabet Insert spoiler
Enter the code below: *