Rss
Calendar
«    February 2019    »
MonTueWedThuFriSatSun
 123
45678910
11121314151617
18192021222324
25262728 
Friends of the site
» » Seema Raja (2019) 1080p - HDRip - x264 - ESub [Dual Audio][Telugu-Line+Tamil] - TMV
  • Author: wroser
  • |
  • Comments: 0
  • |
  • Views: 18
Seema Raja (2019) 1080p - HDRip - x264 - ESub [Dual Audio][Telugu-Line+Tamil] - TMV




Format                                   : Matroska
Format version                           : Version 4
File size                                : 2.37 GiB
Duration                                 : 2 h 36 min
Overall bit rate mode                    : Variable
Overall bit rate                         : 2 168 kb/s
Encoded date                             : UTC 2019-02-09 22:24:38
Writing application                      : mkvmerge v29.0.0 ('Like It Or Not') 32-bit
Writing library                          : libebml v1.3.6 + libmatroska v1.4.9

Video
ID                                       : 1
Format                                   : AVC
Format/Info                              : Advanced Video Codec
Format profile                           : High@L4
Format settings                          : CABAC / 4 Ref Frames
Format settings, CABAC                   : Yes
Format settings, RefFrames               : 4 frames
Codec ID                                 : V_MPEG4/ISO/AVC
Duration                                 : 2 h 36 min
Bit rate                                 : 1 978 kb/s
Width                                    : 1 920 pixels
Height                                   : 816 pixels
Display aspect ratio                     : 2.35:1
Frame rate mode                          : Constant
Frame rate                               : 25.000 FPS
Color space                              : YUV
Chroma subsampling                       : 4:2:0
Bit depth                                : 8 bits
Scan type                                : Progressive
Bits/(Pixel*Frame)                       : 0.051
Stream size                              : 2.17 GiB (91%)
Writing library                          : x264 core 157 r2935 545de2f
Encoding settings                        : cabac=1 / ref=1 / deblock=1:0:0 / analyse=0x3:0x113 / me=hex / subme=2 / psy=1 / psy_rd=1.00:0.00 / mixed_ref=0 / me_range=16 / chroma_me=1 / trellis=0 / 8x8dct=1 / cqm=0 / deadzone=21,11 / fast_pskip=1 / chroma_qp_offset=0 / threads=25 / lookahead_threads=6 / sliced_threads=0 / nr=0 / decimate=1 / interlaced=0 / bluray_compat=0 / constrained_intra=0 / bframes=3 / b_pyramid=2 / b_adapt=1 / b_bias=0 / direct=1 / weightb=1 / open_gop=0 / weightp=1 / keyint=250 / keyint_min=25 / scenecut=40 / intra_refresh=0 / rc_lookahead=10 / rc=2pass / mbtree=1 / bitrate=1978 / ratetol=1.0 / qcomp=0.60 / qpmin=0 / qpmax=69 / qpstep=4 / cplxblur=20.0 / qblur=0.5 / ip_ratio=1.40 / aq=1:1.00
Language                                 : Tamil
Default                                  : Yes
Forced                                   : No

Audio #1
ID                                       : 2
Format                                   : MPEG Audio
Format version                           : Version 1
Format profile                           : Layer 3
Format settings                          : Joint stereo / MS Stereo
Codec ID                                 : A_MPEG/L3
Codec ID/Hint                            : MP3
Duration                                 : 2 h 36 min
Bit rate mode                            : Variable
Bit rate                                 : 90.7 kb/s
Nominal bit rate                         : 96.0 kb/s
Channel(s)                               : 2 channels
Sampling rate                            : 44.1 kHz
Frame rate                               : 38.281 FPS (1152 SPF)
Compression mode                         : Lossy
Stream size                              : 102 MiB (4%)
Writing library                          : LAME3.99r
Encoding settings                        : -m j -V 4 -q 3 -lowpass 15.1 --abr 96
Language                                 : Telugu
Default                                  : Yes
Forced                                   : No

Audio #2
ID                                       : 3
Format                                   : MPEG Audio
Format version                           : Version 1
Format profile                           : Layer 3
Format settings                          : Joint stereo / MS Stereo
Codec ID                                 : A_MPEG/L3
Codec ID/Hint                            : MP3
Duration                                 : 2 h 36 min
Bit rate mode                            : Variable
Bit rate                                 : 96.0 kb/s
Channel(s)                               : 2 channels
Sampling rate                            : 44.1 kHz
Frame rate                               : 38.281 FPS (1152 SPF)
Compression mode                         : Lossy
Stream size                              : 107 MiB (4%)
Writing library                          : LAME3.99r
Encoding settings                        : -m j -V 4 -q 3 -lowpass 15.1 --abr 96
Language                                 : Tamil
Default                                  : No
Forced                                   : No

Text
ID                                       : 4
Format                                   : UTF-8
Codec ID                                 : S_TEXT/UTF8
Codec ID/Info                            : UTF-8 Plain Text
Duration                                 : 2 h 34 min
Bit rate                                 : 67 b/s
Count of elements                        : 2222
Stream size                              : 76.3 KiB (0%)
Language                                 : English
Default                                  : No
Forced                                   : No


Seema Raja (2019) 1080p - HDRip - x264 - ESub [Dual Audio][Telugu-Line+Tamil] - TMVSeema Raja (2019) 1080p - HDRip - x264 - ESub [Dual Audio][Telugu-Line+Tamil] - TMVSeema Raja (2019) 1080p - HDRip - x264 - ESub [Dual Audio][Telugu-Line+Tamil] - TMVSeema Raja (2019) 1080p - HDRip - x264 - ESub [Dual Audio][Telugu-Line+Tamil] - TMVSeema Raja (2019) 1080p - HDRip - x264 - ESub [Dual Audio][Telugu-Line+Tamil] - TMV


SINGLE DIRECT FAST LINKS

https://www.heroupload.com/e15213dc42774bc6/Seema.Raja.2018.HDRip.1080p.Telugu.Line+Tamil-TMV.mkv


700MB LINKS


https://www.heroupload.com/cb0dee09ca4f07bb/Seema.Raja.2018.HDRip.1080p.Telugu.Line+Tamil-TMV.part1.rar
https://www.heroupload.com/77af6360f2ed03b0/Seema.Raja.2018.HDRip.1080p.Telugu.Line+Tamil-TMV.part2.rar
https://www.heroupload.com/875558f1d485d2e0/Seema.Raja.2018.HDRip.1080p.Telugu.Line+Tamil-TMV.part3.rar
https://www.heroupload.com/0efe92d814c0f306/Seema.Raja.2018.HDRip.1080p.Telugu.Line+Tamil-TMV.part4.rar


Buy Premium From My Links & Support Me

Add a comment

Name:* E-Mail:*
Bold Italic Underline Strike | Align left Center Align right | Insert smilies Insert link URLInsert protected URL Select color | Add Hidden Text Insert Quote Convert selected text from selection to Cyrillic (Russian) alphabet Insert spoiler
Enter the code below: *