Rss
Calendar
«    February 2019    »
MonTueWedThuFriSatSun
 123
45678910
11121314151617
18192021222324
25262728 
Friends of the site
» » Yatra (2019) Telugu - 1080p - PreDVD - x264 - MP3-TMV
  • Author: wroser
  • |
  • Comments: 0
  • |
  • Views: 14
Yatra (2019) Telugu - 1080p - PreDVD - x264 - MP3-TMV




Format                                   : Matroska
Format version                           : Version 4
File size                                : 2.22 GiB
Duration                                 : 2 h 12 min
Overall bit rate mode                    : Variable
Overall bit rate                         : 2 400 kb/s
Encoded date                             : UTC 2019-02-09 22:40:54
Writing application                      : mkvmerge v29.0.0 ('Like It Or Not') 32-bit
Writing library                          : libebml v1.3.6 + libmatroska v1.4.9

Video
ID                                       : 1
Format                                   : AVC
Format/Info                              : Advanced Video Codec
Format profile                           : High@L4
Format settings                          : CABAC / 4 Ref Frames
Format settings, CABAC                   : Yes
Format settings, RefFrames               : 4 frames
Codec ID                                 : V_MPEG4/ISO/AVC
Duration                                 : 2 h 12 min
Bit rate                                 : 2 296 kb/s
Width                                    : 1 920 pixels
Height                                   : 816 pixels
Display aspect ratio                     : 2.35:1
Frame rate mode                          : Constant
Frame rate                               : 23.976 (24000/1001) FPS
Color space                              : YUV
Chroma subsampling                       : 4:2:0
Bit depth                                : 8 bits
Scan type                                : Progressive
Bits/(Pixel*Frame)                       : 0.061
Stream size                              : 2.13 GiB (96%)
Writing library                          : x264 core 157 r2935 545de2f
Encoding settings                        : cabac=1 / ref=1 / deblock=1:0:0 / analyse=0x3:0x3 / me=dia / subme=1 / psy=1 / psy_rd=1.00:0.00 / mixed_ref=0 / me_range=16 / chroma_me=1 / trellis=0 / 8x8dct=1 / cqm=0 / deadzone=21,11 / fast_pskip=1 / chroma_qp_offset=0 / threads=25 / lookahead_threads=4 / sliced_threads=0 / nr=0 / decimate=1 / interlaced=0 / bluray_compat=0 / constrained_intra=0 / bframes=3 / b_pyramid=2 / b_adapt=1 / b_bias=0 / direct=1 / weightb=1 / open_gop=0 / weightp=1 / keyint=240 / keyint_min=23 / scenecut=40 / intra_refresh=0 / rc=2pass / mbtree=0 / bitrate=2296 / ratetol=1.0 / qcomp=0.60 / qpmin=0 / qpmax=69 / qpstep=4 / cplxblur=20.0 / qblur=0.5 / ip_ratio=1.40 / pb_ratio=1.30 / aq=1:1.00
Language                                 : Telugu
Default                                  : Yes
Forced                                   : No

Audio
ID                                       : 2
Format                                   : MPEG Audio
Format version                           : Version 1
Format profile                           : Layer 3
Format settings                          : Joint stereo / MS Stereo
Codec ID                                 : A_MPEG/L3
Codec ID/Hint                            : MP3
Duration                                 : 2 h 12 min
Bit rate mode                            : Variable
Bit rate                                 : 102 kb/s
Nominal bit rate                         : 96.0 kb/s
Channel(s)                               : 2 channels
Sampling rate                            : 44.1 kHz
Frame rate                               : 38.281 FPS (1152 SPF)
Compression mode                         : Lossy
Stream size                              : 96.4 MiB (4%)
Writing library                          : LAME3.99r
Encoding settings                        : -m j -V 4 -q 3 -lowpass 15.1 --abr 96
Language                                 : Telugu
Default                                  : Yes
Forced                                   : No



Yatra (2019) Telugu - 1080p - PreDVD - x264 - MP3-TMVYatra (2019) Telugu - 1080p - PreDVD - x264 - MP3-TMVYatra (2019) Telugu - 1080p - PreDVD - x264 - MP3-TMVYatra (2019) Telugu - 1080p - PreDVD - x264 - MP3-TMVYatra (2019) Telugu - 1080p - PreDVD - x264 - MP3-TMVYatra (2019) Telugu - 1080p - PreDVD - x264 - MP3-TMVYatra (2019) Telugu - 1080p - PreDVD - x264 - MP3-TMVYatra (2019) Telugu - 1080p - PreDVD - x264 - MP3-TMVYatra (2019) Telugu - 1080p - PreDVD - x264 - MP3-TMV


SINGLE DIRECT FAST LINKS

https://www.heroupload.com/3b19097fe5ebe556/Yatra.2019.Telugu.PreDVD.1080p.x264.MP3-TMV.mkv


700MB LINKS


https://www.heroupload.com/91f0f681906cdede/Yatra.2019.Telugu.PreDVD.1080p.x264.MP3-TMV.part1.rar
https://www.heroupload.com/dd88b26196e0a71f/Yatra.2019.Telugu.PreDVD.1080p.x264.MP3-TMV.part2.rar
https://www.heroupload.com/a874ce4f03f91240/Yatra.2019.Telugu.PreDVD.1080p.x264.MP3-TMV.part3.rar
https://www.heroupload.com/065b4fece72c0f46/Yatra.2019.Telugu.PreDVD.1080p.x264.MP3-TMV.part4.rar


Buy Premium From My Links & Support Me

Add a comment

Name:* E-Mail:*
Bold Italic Underline Strike | Align left Center Align right | Insert smilies Insert link URLInsert protected URL Select color | Add Hidden Text Insert Quote Convert selected text from selection to Cyrillic (Russian) alphabet Insert spoiler
Enter the code below: *