Rss
Calendar
«    February 2019    »
MonTueWedThuFriSatSun
 123
45678910
11121314151617
18192021222324
25262728 
Friends of the site
» » Nannu Dochukunduvate (2018) UNCUT 720p HDRip x264 [Dual Audio][Hindi+Telugu] DM Exclu
  • Author: wroser
  • |
  • Comments: 0
  • |
  • Views: 13
Nannu Dochukunduvate (2018) UNCUT 720p HDRip x264 [Dual Audio][Hindi+Telugu] DM Exclu





General
Format : Matroska
Format version : Version 4
File size : 1.33 GiB
Duration : 2 h 18 min
Overall bit rate : 1 369 kb/s


Video
ID : 1
Format : AVC
Format/Info : Advanced Video Codec
Format profile : High@L4.1
Format settings : CABAC / 11 Ref Frames
Format settings, CABAC : Yes
Format settings, ReFrames : 11 frames
Codec ID : V_MPEG4/ISO/AVC
Duration : 2 h 18 min
Bit rate : 1 111 kb/s
Width : 1 280 pixels
Height : 548 pixels
Display aspect ratio : 2.35:1
Frame rate mode : Constant
Frame rate : 23.976 (24000/1001) FPS
Color space : YUV
Chroma subsampling : 4:2:0
Bit depth : 8 bits
Scan type : Progressive
Default : Yes
Forced : No
Color range : Limited
Color primaries : BT.709
Transfer characteristics : BT.709
Matrix coefficients : BT.709

Audio #1
ID : 2
Format : AC-3
Format/Info : Audio Coding 3
Commercial name : Dolby Digital
Codec ID : A_AC3
Duration : 2 h 18 min
Bit rate mode : Constant
Bit rate : 192 kb/s
Channel(s) : 2 channels
Channel layout : L R
Sampling rate : 48.0 kHz
Frame rate : 31.250 FPS (1536 SPF)
Bit depth : 16 bits
Compression mode : Lossy
Delay relative to video : -105 ms
Stream size : 191 MiB (14%)
Title : Hindi DTH 2.0 By DesireMOVies.Life
Language : Hindi
Service kind : Complete Main
Default : Yes
Forced : Yes

Audio #2
ID : 3
Format : AAC LC SBR
Format/Info : Advanced Audio Codec Low Complexity with Spectral Band Replication
Commercial name : HE-AAC
Format settings : NBC
Codec ID : A_AAC-5
Duration : 2 h 18 min
Bit rate : 64.0 kb/s
Channel(s) : 2 channels
Channel layout : L R
Sampling rate : 48.0 kHz
Frame rate : 23.438 FPS (2048 SPF)
Compression mode : Lossy
Delay relative to video : -105 ms
Stream size : 63.5 MiB (5%)
Title : Stereo
Language : Telugu
Default : No
Forced : No 




Nannu Dochukunduvate (2018) UNCUT 720p HDRip x264 [Dual Audio][Hindi+Telugu] DM Exclu
Nannu Dochukunduvate (2018) UNCUT 720p HDRip x264 [Dual Audio][Hindi+Telugu] DM Exclu
Nannu Dochukunduvate (2018) UNCUT 720p HDRip x264 [Dual Audio][Hindi+Telugu] DM Exclu
Nannu Dochukunduvate (2018) UNCUT 720p HDRip x264 [Dual Audio][Hindi+Telugu] DM Exclu
Nannu Dochukunduvate (2018) UNCUT 720p HDRip x264 [Dual Audio][Hindi+Telugu] DM Exclu
Nannu Dochukunduvate (2018) UNCUT 720p HDRip x264 [Dual Audio][Hindi+Telugu] DM Exclu
Nannu Dochukunduvate (2018) UNCUT 720p HDRip x264 [Dual Audio][Hindi+Telugu] DM Exclu
Nannu Dochukunduvate (2018) UNCUT 720p HDRip x264 [Dual Audio][Hindi+Telugu] DM Exclu
Nannu Dochukunduvate (2018) UNCUT 720p HDRip x264 [Dual Audio][Hindi+Telugu] DM Exclu
Nannu Dochukunduvate (2018) UNCUT 720p HDRip x264 [Dual Audio][Hindi+Telugu] DM Exclu

SINGLE DIRECT FAST LINKS


https://www.heroupload.com/8da7ae969a180ce5/Nannu.Dochukunduvate.2018.UNCUT.720p.HDRip.x264.Dual.Audio-DM.mkv



Buy Premium From My Links & Support Me

Add a comment

Name:* E-Mail:*
Bold Italic Underline Strike | Align left Center Align right | Insert smilies Insert link URLInsert protected URL Select color | Add Hidden Text Insert Quote Convert selected text from selection to Cyrillic (Russian) alphabet Insert spoiler
Enter the code below: *