Rss
Calendar
«    March 2019    »
MonTueWedThuFriSatSun
 123
45678910
11121314151617
18192021222324
25262728293031
Friends of the site
» » Maari 2 (2018) Tamil - 1080p - WEB-HD - AVC - DD5.1 - ESubs-MTR
  • Author: wroser
  • |
  • Comments: 0
  • |
  • Views: 36
Maari 2 (2018) Tamil - 1080p - WEB-HD - AVC - DD5.1 - ESubs-MTR




Format                                   : MPEG-TS
File size                                : 9.03 GiB
Duration                                 : 2 h 20 min
Overall bit rate mode                    : Variable
Overall bit rate                         : 9 183 kb/s
FileExtension_Invalid                    : ts m2t m2s m4t m4s tmf ts tp trp ty

Video
ID                                       : 481 (0x1E1)
Menu ID                                  : 1 (0x1)
Format                                   : AVC
Format/Info                              : Advanced Video Codec
Format profile                           : High@L4
Format settings                          : CABAC / 3 Ref Frames
Format settings, CABAC                   : Yes
Format settings, RefFrames               : 3 frames
Codec ID                                 : 27
Duration                                 : 2 h 20 min
Bit rate mode                            : Constant
Bit rate                                 : 8 500 kb/s
Maximum bit rate                         : 8 970 kb/s
Width                                    : 1 920 pixels
Height                                   : 1 080 pixels
Display aspect ratio                     : 16:9
Frame rate                               : 29.970 (30000/1001) FPS
Standard                                 : PAL
Color space                              : YUV
Chroma subsampling                       : 4:2:0
Bit depth                                : 8 bits
Scan type                                : Progressive
Bits/(Pixel*Frame)                       : 0.137
Stream size                              : 8.14 GiB (90%)
Color range                              : Limited
Color primaries                          : BT.709
Transfer characteristics                 : BT.709
Matrix coefficients                      : BT.709

Audio
ID                                       : 482 (0x1E2)
Menu ID                                  : 1 (0x1)
Format                                   : AC-3
Format/Info                              : Audio Coding 3
Commercial name                          : Dolby Digital
Codec ID                                 : 129
Duration                                 : 2 h 20 min
Bit rate mode                            : Constant
Bit rate                                 : 448 kb/s
Maximum bit rate                         : 616 kb/s
Channel(s)                               : 6 channels
Channel layout                           : L R C LFE Ls Rs
Sampling rate                            : 48.0 kHz
Frame rate                               : 31.250 FPS (1536 SPF)
Bit depth                                : 16 bits
Compression mode                         : Lossy
Stream size                              : 451 MiB (5%)
Service kind                             : Complete Main

Menu
ID                                       : 480 (0x1E0)
Menu ID                                  : 1 (0x1)
Duration                                 : 2 h 20 min
List                                     : 481 (0x1E1) (AVC) / 482 (0x1E2) (AC-3)
Maximum bit rate                         : 9586400



Maari 2 (2018) Tamil - 1080p - WEB-HD - AVC - DD5.1 - ESubs-MTR



SINGLE DIRECT FAST LINKS

https://www.heroupload.com/2b006bd3e0768d2f/Maari.2.2018.1080p.v3.HD.AVC.MP4.DD5.1.ESubs.Tamil-MTR.mp4


1GB LINKS


https://www.heroupload.com/2961dddda9828419/Maari.2.2018.1080p.v3.HD.AVC.MP4.DD5.1.ESubs.Tamil-MTR.part01.rar
https://www.heroupload.com/1859d4e7ccd96970/Maari.2.2018.1080p.v3.HD.AVC.MP4.DD5.1.ESubs.Tamil-MTR.part02.rar
https://www.heroupload.com/04aea292f09b5bfe/Maari.2.2018.1080p.v3.HD.AVC.MP4.DD5.1.ESubs.Tamil-MTR.part03.rar
https://www.heroupload.com/fb762616e54a6ce8/Maari.2.2018.1080p.v3.HD.AVC.MP4.DD5.1.ESubs.Tamil-MTR.part04.rar
https://www.heroupload.com/91dc9195983fc05a/Maari.2.2018.1080p.v3.HD.AVC.MP4.DD5.1.ESubs.Tamil-MTR.part05.rar
https://www.heroupload.com/f0a8533a76e2c968/Maari.2.2018.1080p.v3.HD.AVC.MP4.DD5.1.ESubs.Tamil-MTR.part06.rar
https://www.heroupload.com/335285fd5ffd865e/Maari.2.2018.1080p.v3.HD.AVC.MP4.DD5.1.ESubs.Tamil-MTR.part07.rar
https://www.heroupload.com/b4e54c55772c1345/Maari.2.2018.1080p.v3.HD.AVC.MP4.DD5.1.ESubs.Tamil-MTR.part08.rar
https://www.heroupload.com/899fa9e680594db2/Maari.2.2018.1080p.v3.HD.AVC.MP4.DD5.1.ESubs.Tamil-MTR.part09.rar
https://www.heroupload.com/1a5ec768034d3d85/Maari.2.2018.1080p.v3.HD.AVC.MP4.DD5.1.ESubs.Tamil-MTR.part10.rar
https://www.heroupload.com/0d273013d73b29ef/Maari.2.2018.1080p.v3.HD.AVC.MP4.DD5.1.ESubs.Tamil-MTR.srt


Buy Premium From My Links & Support Me

Add a comment

Name:* E-Mail:*
Bold Italic Underline Strike | Align left Center Align right | Insert smilies Insert link URLInsert protected URL Select color | Add Hidden Text Insert Quote Convert selected text from selection to Cyrillic (Russian) alphabet Insert spoiler
Enter the code below: *