Rss
Calendar
«    March 2019    »
MonTueWedThuFriSatSun
 123
45678910
11121314151617
18192021222324
25262728293031
Friends of the site
» » Maari 2 (2018) Tamil Ultra HD 4K - Untouched - AVC - Dolby ® 5.1 - Esubs-MTR
  • Author: wroser
  • |
  • Comments: 0
  • |
  • Views: 27
Maari 2 (2018) Tamil Ultra HD 4K - Untouched - AVC - Dolby ® 5.1 - Esubs-MTR




Format                                   : MPEG-4
Codec ID                                 : M4V  (isom/avc1/mp42)
File size                                : 5.49 GiB
Duration                                 : 2 h 20 min
Overall bit rate mode                    : Variable
Overall bit rate                         : 5 584 kb/s
Encoded date                             : UTC 2019-02-14 12:13:43
Tagged date                              : UTC 2019-02-14 12:13:43

Video
ID                                       : 1
Format                                   : AVC
Format/Info                              : Advanced Video Codec
Format profile                           : Main@L5.1
Format settings                          : CABAC / 3 Ref Frames
Format settings, CABAC                   : Yes
Format settings, RefFrames               : 3 frames
Codec ID                                 : avc1
Codec ID/Info                            : Advanced Video Coding
Duration                                 : 2 h 20 min
Bit rate mode                            : Constant
Bit rate                                 : 5 000 kb/s
Maximum bit rate                         : 15.0 Mb/s
Width                                    : 3 840 pixels
Height                                   : 2 160 pixels
Display aspect ratio                     : 16:9
Frame rate mode                          : Constant
Frame rate                               : 25.000 FPS
Standard                                 : PAL
Color space                              : YUV
Chroma subsampling                       : 4:2:0
Bit depth                                : 8 bits
Scan type                                : Progressive
Bits/(Pixel*Frame)                       : 0.024
Stream size                              : 4.92 GiB (90%)
Encoded date                             : UTC 2019-02-14 12:13:43
Tagged date                              : UTC 2019-02-14 12:13:43
Color range                              : Limited
Color primaries                          : BT.709
Transfer characteristics                 : BT.709
Matrix coefficients                      : BT.709
Codec configuration box                  : avcC

Audio #1
ID                                       : 2
Format                                   : AAC LC
Format/Info                              : Advanced Audio Codec Low Complexity
Codec ID                                 : mp4a-40-2
Duration                                 : 2 h 20 min
Bit rate mode                            : Variable
Bit rate                                 : 128 kb/s
Maximum bit rate                         : 133 kb/s
Channel(s)                               : 2 channels
Channel layout                           : L R
Sampling rate                            : 48.0 kHz
Frame rate                               : 46.875 FPS (1024 SPF)
Compression mode                         : Lossy
Stream size                              : 126 MiB (2%)
Encoded date                             : UTC 2019-02-14 12:13:43
Tagged date                              : UTC 2019-02-14 12:13:43

Audio #2
ID                                       : 3
Format                                   : AC-3
Format/Info                              : Audio Coding 3
Commercial name                          : Dolby Digital
Codec ID                                 : ac-3
Duration                                 : 2 h 20 min
Bit rate mode                            : Constant
Bit rate                                 : 448 kb/s
Channel(s)                               : 6 channels
Channel layout                           : L R C LFE Ls Rs
Sampling rate                            : 48.0 kHz
Frame rate                               : 31.250 FPS (1536 SPF)
Bit depth                                : 16 bits
Compression mode                         : Lossy
Stream size                              : 451 MiB (8%)
Service kind                             : Complete Main
Encoded date                             : UTC 2019-02-14 12:13:43
Tagged date                              : UTC 2019-02-14 12:13:43



Maari 2 (2018) Tamil Ultra HD 4K - Untouched - AVC - Dolby ® 5.1 - Esubs-MTRMaari 2 (2018) Tamil Ultra HD 4K - Untouched - AVC - Dolby ® 5.1 - Esubs-MTRMaari 2 (2018) Tamil Ultra HD 4K - Untouched - AVC - Dolby ® 5.1 - Esubs-MTRMaari 2 (2018) Tamil Ultra HD 4K - Untouched - AVC - Dolby ® 5.1 - Esubs-MTRMaari 2 (2018) Tamil Ultra HD 4K - Untouched - AVC - Dolby ® 5.1 - Esubs-MTRMaari 2 (2018) Tamil Ultra HD 4K - Untouched - AVC - Dolby ® 5.1 - Esubs-MTR

SINGLE DIRECT FAST LINKS

https://www.heroupload.com/1788b6bf847fc579/Maari.2.2018.4K.Untouched.UHD.MP4.ESubs.Tamil-MTR.mp4


1GB LINKS



https://www.heroupload.com/e93503b72a107f95/Maari.2.2018.4K.Untouched.UHD.MP4.ESubs.Tamil-MTR.part1.rar
https://www.heroupload.com/3890508802542419/Maari.2.2018.4K.Untouched.UHD.MP4.ESubs.Tamil-MTR.part2.rar
https://www.heroupload.com/cd001e3a37a0e1a2/Maari.2.2018.4K.Untouched.UHD.MP4.ESubs.Tamil-MTR.part3.rar
https://www.heroupload.com/a8283b8cd3ead87a/Maari.2.2018.4K.Untouched.UHD.MP4.ESubs.Tamil-MTR.part4.rar
https://www.heroupload.com/6beeea0d55873d6d/Maari.2.2018.4K.Untouched.UHD.MP4.ESubs.Tamil-MTR.part5.rar
https://www.heroupload.com/fa4372c7d6a99035/Maari.2.2018.4K.Untouched.UHD.MP4.ESubs.Tamil-MTR.part6.rar
https://www.heroupload.com/98cd9b5761830f29/Maari.2.2018.4K.Untouched.UHD.MP4.ESubs.Tamil-MTR.srt




Buy Premium From My Links & Support Me

Add a comment

Name:* E-Mail:*
Bold Italic Underline Strike | Align left Center Align right | Insert smilies Insert link URLInsert protected URL Select color | Add Hidden Text Insert Quote Convert selected text from selection to Cyrillic (Russian) alphabet Insert spoiler
Enter the code below: *