Rss
Calendar
«    March 2019    »
MonTueWedThuFriSatSun
 123
45678910
11121314151617
18192021222324
25262728293031
Friends of the site
» » Goosebumps 2 (2018) 1080p BluRay x264 DD5.1 [Multi Audio][Hindi+Telugu+Tamil+English]
  • Author: wroser
  • |
  • Comments: 0
  • |
  • Views: 16
Goosebumps 2 (2018) 1080p BluRay x264 DD5.1 [Multi Audio][Hindi+Telugu+Tamil+English]





Format                                   : Matroska
Format version                           : Version 4
File size                                : 2.16 GiB
Duration                                 : 1 h 29 min
Overall bit rate                         : 3 442 kb/s
Encoded date                             : UTC 2019-02-16 09:32:18
Writing application                      : mkvmerge v29.0.0 ('Like It Or Not') 32-bit
Writing library                          : libebml v1.3.6 + libmatroska v1.4.9

Video
ID                                       : 1
Format                                   : AVC
Format/Info                              : Advanced Video Codec
Format profile                           : High@L4.1
Format settings                          : CABAC / 4 Ref Frames
Format settings, CABAC                   : Yes
Format settings, RefFrames               : 4 frames
Codec ID                                 : V_MPEG4/ISO/AVC
Duration                                 : 1 h 29 min
Bit rate                                 : 2 150 kb/s
Width                                    : 1 920 pixels
Height                                   : 800 pixels
Display aspect ratio                     : 2.40:1
Frame rate mode                          : Constant
Frame rate                               : 23.976 (24000/1001) FPS
Color space                              : YUV
Chroma subsampling                       : 4:2:0
Bit depth                                : 8 bits
Scan type                                : Progressive
Bits/(Pixel*Frame)                       : 0.058
Stream size                              : 1.35 GiB (62%)
Writing library                          : x264 core 157
Encoding settings                        : cabac=1 / ref=4 / deblock=1:-1:-1 / analyse=0x3:0x133 / me=umh / subme=9 / psy=1 / psy_rd=1.00:0.15 / mixed_ref=1 / me_range=24 / chroma_me=1 / trellis=2 / 8x8dct=1 / cqm=0 / deadzone=21,11 / fast_pskip=0 / chroma_qp_offset=-3 / threads=18 / lookahead_threads=1 / sliced_threads=0 / nr=0 / decimate=1 / interlaced=0 / bluray_compat=0 / constrained_intra=0 / bframes=3 / b_pyramid=2 / b_adapt=2 / b_bias=0 / direct=3 / weightb=1 / open_gop=0 / weightp=2 / keyint=250 / keyint_min=23 / scenecut=40 / intra_refresh=0 / rc_lookahead=60 / rc=2pass / mbtree=1 / bitrate=2150 / ratetol=1.0 / qcomp=0.60 / qpmin=0 / qpmax=69 / qpstep=4 / cplxblur=20.0 / qblur=0.5 / vbv_maxrate=31250 / vbv_bufsize=31250 / nal_hrd=none / filler=0 / ip_ratio=1.40 / aq=1:1.00
Language                                 : English
Default                                  : Yes
Forced                                   : No

Audio #1
ID                                       : 2
Format                                   : AC-3
Format/Info                              : Audio Coding 3
Commercial name                          : Dolby Digital
Codec ID                                 : A_AC3
Duration                                 : 1 h 29 min
Bit rate mode                            : Constant
Bit rate                                 : 384 kb/s
Channel(s)                               : 6 channels
Channel layout                           : L R C LFE Ls Rs
Sampling rate                            : 44.1 kHz
Frame rate                               : 28.711 FPS (1536 SPF)
Bit depth                                : 16 bits
Compression mode                         : Lossy
Delay relative to video                  : -43 ms
Stream size                              : 247 MiB (11%)
Language                                 : Telugu
Service kind                             : Complete Main
Default                                  : No
Forced                                   : No

Audio #2
ID                                       : 3
Format                                   : AC-3
Format/Info                              : Audio Coding 3
Commercial name                          : Dolby Digital
Codec ID                                 : A_AC3
Duration                                 : 1 h 29 min
Bit rate mode                            : Constant
Bit rate                                 : 384 kb/s
Channel(s)                               : 6 channels
Channel layout                           : L R C LFE Ls Rs
Sampling rate                            : 44.1 kHz
Frame rate                               : 28.711 FPS (1536 SPF)
Bit depth                                : 16 bits
Compression mode                         : Lossy
Delay relative to video                  : -43 ms
Stream size                              : 247 MiB (11%)
Language                                 : Tamil
Service kind                             : Complete Main
Default                                  : No
Forced                                   : No

Audio #3
ID                                       : 4
Format                                   : AC-3
Format/Info                              : Audio Coding 3
Commercial name                          : Dolby Digital
Codec ID                                 : A_AC3
Duration                                 : 1 h 29 min
Bit rate mode                            : Constant
Bit rate                                 : 384 kb/s
Channel(s)                               : 6 channels
Channel layout                           : L R C LFE Ls Rs
Sampling rate                            : 48.0 kHz
Frame rate                               : 31.250 FPS (1536 SPF)
Bit depth                                : 16 bits
Compression mode                         : Lossy
Delay relative to video                  : -43 ms
Stream size                              : 247 MiB (11%)
Language                                 : Hindi
Service kind                             : Complete Main
Default                                  : Yes
Forced                                   : No

Audio #4
ID                                       : 5
Format                                   : AAC LC
Format/Info                              : Advanced Audio Codec Low Complexity
Codec ID                                 : A_AAC-2
Duration                                 : 1 h 29 min
Bit rate                                 : 137 kb/s
Channel(s)                               : 2 channels
Channel layout                           : L R
Sampling rate                            : 48.0 kHz
Frame rate                               : 46.875 FPS (1024 SPF)
Compression mode                         : Lossy
Delay relative to video                  : -43 ms
Stream size                              : 88.3 MiB (4%)
Language                                 : English
Default                                  : No
Forced                                   : No

Text
ID                                       : 6
Format                                   : UTF-8
Codec ID                                 : S_TEXT/UTF8
Codec ID/Info                            : UTF-8 Plain Text
Duration                                 : 1 h 27 min
Bit rate                                 : 57 b/s
Count of elements                        : 1251
Stream size                              : 36.8 KiB (0%)
Language                                 : English
Default                                  : Yes
Forced                                   : No



Goosebumps 2 (2018) 1080p BluRay x264 DD5.1 [Multi Audio][Hindi+Telugu+Tamil+English]Goosebumps 2 (2018) 1080p BluRay x264 DD5.1 [Multi Audio][Hindi+Telugu+Tamil+English]Goosebumps 2 (2018) 1080p BluRay x264 DD5.1 [Multi Audio][Hindi+Telugu+Tamil+English]Goosebumps 2 (2018) 1080p BluRay x264 DD5.1 [Multi Audio][Hindi+Telugu+Tamil+English]Goosebumps 2 (2018) 1080p BluRay x264 DD5.1 [Multi Audio][Hindi+Telugu+Tamil+English]

SINGLE DIRECT FAST LINKS

https://www.heroupload.com/b3fe9620d63c09eb/Goosebumps.2.2018.BluRay.1080p.DD5.1Original.Audios.Telugu+Tamil+Hindi+Eng.mkv


700MB LINKS


https://www.heroupload.com/7fda187877c86f02/Goosebumps.2.2018.BluRay.1080p.DD5.1Original.Audios.Telugu+Tamil+Hindi+Eng.part1.rar
https://www.heroupload.com/c34f184bb9f4123d/Goosebumps.2.2018.BluRay.1080p.DD5.1Original.Audios.Telugu+Tamil+Hindi+Eng.part2.rar
https://www.heroupload.com/72900cb6eb1df85b/Goosebumps.2.2018.BluRay.1080p.DD5.1Original.Audios.Telugu+Tamil+Hindi+Eng.part3.rar
https://www.heroupload.com/27e38398811ed491/Goosebumps.2.2018.BluRay.1080p.DD5.1Original.Audios.Telugu+Tamil+Hindi+Eng.part4.rar


Buy Premium From My Links & Support Me

Add a comment

Name:* E-Mail:*
Bold Italic Underline Strike | Align left Center Align right | Insert smilies Insert link URLInsert protected URL Select color | Add Hidden Text Insert Quote Convert selected text from selection to Cyrillic (Russian) alphabet Insert spoiler
Enter the code below: *