Rss
Calendar
«    March 2019    »
MonTueWedThuFriSatSun
 123
45678910
11121314151617
18192021222324
25262728293031
Friends of the site
» » Its Complicated (2009) 720p BluRay x264 DD5.1 [Dual Audio][Hindi+English] - Team SSX
  • Author: wroser
  • |
  • Comments: 0
  • |
  • Views: 16
Its Complicated (2009) 720p BluRay x264 DD5.1 [Dual Audio][Hindi+English] - Team SSX





Format                                   : Matroska
Format version                           : Version 4
File size                                : 1.27 GiB
Duration                                 : 2 h 0 min
Overall bit rate                         : 1 510 kb/s
Encoded date                             : UTC 2019-02-16 04:13:13
Writing application                      : mkvmerge v28.2.0 ('The Awakening') 32-bit
Writing library                          : libebml v1.3.6 + libmatroska v1.4.9

Video
ID                                       : 1
Format                                   : AVC
Format/Info                              : Advanced Video Codec
Format profile                           : High@L4
Format settings                          : CABAC / 8 Ref Frames
Format settings, CABAC                   : Yes
Format settings, RefFrames               : 8 frames
Codec ID                                 : V_MPEG4/ISO/AVC
Duration                                 : 2 h 0 min
Bit rate                                 : 779 kb/s
Width                                    : 1 280 pixels
Height                                   : 688 pixels
Display aspect ratio                     : 1.85:1
Frame rate mode                          : Constant
Frame rate                               : 23.976 (24000/1001) FPS
Color space                              : YUV
Chroma subsampling                       : 4:2:0
Bit depth                                : 8 bits
Scan type                                : Progressive
Bits/(Pixel*Frame)                       : 0.037
Stream size                              : 670 MiB (51%)
Title                                    : Team SSX
Default                                  : Yes
Forced                                   : No

Audio #1
ID                                       : 2
Format                                   : AAC LC
Format/Info                              : Advanced Audio Codec Low Complexity
Codec ID                                 : A_AAC-2
Duration                                 : 1 h 58 min
Bit rate                                 : 92.0 kb/s
Channel(s)                               : 2 channels
Channel layout                           : L R
Sampling rate                            : 48.0 kHz
Frame rate                               : 46.875 FPS (1024 SPF)
Compression mode                         : Lossy
Delay relative to video                  : -125 ms
Stream size                              : 77.8 MiB (6%)
Title                                    : Team SSX
Language                                 : English
Default                                  : No
Forced                                   : No

Audio #2
ID                                       : 3
Format                                   : E-AC-3
Format/Info                              : Enhanced AC-3
Commercial name                          : Dolby Digital Plus
Codec ID                                 : A_EAC3
Duration                                 : 2 h 0 min
Bit rate mode                            : Constant
Bit rate                                 : 640 kb/s
Channel(s)                               : 6 channels
Channel layout                           : L R C LFE Ls Rs
Sampling rate                            : 48.0 kHz
Frame rate                               : 31.250 FPS (1536 SPF)
Compression mode                         : Lossy
Delay relative to video                  : 875 ms
Stream size                              : 552 MiB (42%)
Title                                    : Team SSX
Language                                 : Hindi
Service kind                             : Complete Main
Default                                  : Yes
Forced                                   : Yes 


[b]

Its Complicated (2009) 720p BluRay x264 DD5.1 [Dual Audio][Hindi+English] - Team SSX
Its Complicated (2009) 720p BluRay x264 DD5.1 [Dual Audio][Hindi+English] - Team SSX
Its Complicated (2009) 720p BluRay x264 DD5.1 [Dual Audio][Hindi+English] - Team SSX
Its Complicated (2009) 720p BluRay x264 DD5.1 [Dual Audio][Hindi+English] - Team SSX
Its Complicated (2009) 720p BluRay x264 DD5.1 [Dual Audio][Hindi+English] - Team SSX
Its Complicated (2009) 720p BluRay x264 DD5.1 [Dual Audio][Hindi+English] - Team SSX
[b]SINGLE DIRECT FAST LINKS[/b]


https://www.heroupload.com/94983af7b9dd9ad0/Its.Complicated.2009.720p.BluRay.x264.Eng-Hindi.DD5.1-Team.SSX.mkv


[b]Buy Premium From My Links & Support Me[/b]

Add a comment

Name:* E-Mail:*
Bold Italic Underline Strike | Align left Center Align right | Insert smilies Insert link URLInsert protected URL Select color | Add Hidden Text Insert Quote Convert selected text from selection to Cyrillic (Russian) alphabet Insert spoiler
Enter the code below: *