Rss
Calendar
«    June 2019    »
MonTueWedThuFriSatSun
 12
3456789
10111213141516
17181920212223
24252627282930
Friends of the site
» » Thadam (2019) Tamil Ultra HD 4K - Untouched - AVC - AAC-BWT
  • Author: wroser
  • |
  • Comments: 0
  • |
  • Views: 31
Thadam (2019) Tamil Ultra HD 4K - Untouched - AVC - AAC-BWT





Format                                   : MPEG-4
Format profile                           : Base Media
Codec ID                                 : isom (isom)
File size                                : 11.6 GiB
Duration                                 : 2 h 16 min
Overall bit rate mode                    : Variable
Overall bit rate                         : 12.1 Mb/s
Encoded date                             : UTC 2019-04-03 03:22:56
Tagged date                              : UTC 2019-04-03 03:22:56

Video
ID                                       : 1
Format                                   : HEVC
Format/Info                              : High Efficiency Video Coding
Format profile                           : Main@L5@Main
Codec ID                                 : hev1
Codec ID/Info                            : High Efficiency Video Coding
Duration                                 : 2 h 16 min
Bit rate                                 : 12.0 Mb/s
Width                                    : 3 840 pixels
Height                                   : 2 160 pixels
Display aspect ratio                     : 16:9
Frame rate mode                          : Constant
Frame rate                               : 23.976 (24000/1001) FPS
Color space                              : YUV
Chroma subsampling                       : 4:2:0 (Type 0)
Bit depth                                : 8 bits
Bits/(Pixel*Frame)                       : 0.060
Stream size                              : 11.4 GiB (99%)
Encoded date                             : UTC 2019-04-03 03:22:56
Tagged date                              : UTC 2019-04-03 03:22:56
Color range                              : Limited
Color primaries                          : BT.709
Transfer characteristics                 : BT.709
Matrix coefficients                      : BT.709
Codec configuration box                  : hvcC

Audio
ID                                       : 2
Format                                   : AAC LC
Format/Info                              : Advanced Audio Codec Low Complexity
Codec ID                                 : mp4a-40-2
Duration                                 : 2 h 16 min
Bit rate mode                            : Variable
Bit rate                                 : 128 kb/s
Maximum bit rate                         : 133 kb/s
Channel(s)                               : 2 channels
Channel layout                           : L R
Sampling rate                            : 48.0 kHz
Frame rate                               : 46.875 FPS (1024 SPF)
Compression mode                         : Lossy
Stream size                              : 122 MiB (1%)
Language                                 : English
Encoded date                             : UTC 2019-04-03 03:22:56
Tagged date                              : UTC 2019-04-03 03:22:56



Thadam (2019) Tamil Ultra HD 4K - Untouched - AVC - AAC-BWTThadam (2019) Tamil Ultra HD 4K - Untouched - AVC - AAC-BWTThadam (2019) Tamil Ultra HD 4K - Untouched - AVC - AAC-BWTThadam (2019) Tamil Ultra HD 4K - Untouched - AVC - AAC-BWTThadam (2019) Tamil Ultra HD 4K - Untouched - AVC - AAC-BWT


SINGLE DIRECT FAST LINKS

https://www.heroupload.com/09fa51acb585a3b6/Thadam.2019.Tamil.Ultra.HD.4K.UNTOUCHED.AVC.DD5.1.ESub-BWT.mp4


1GB LINKS


https://www.heroupload.com/5a2bad0a889216c7/Thadam.2019.Tamil.Ultra.HD.4K.UNTOUCHED.AVC.DD5.1.ESub-BWT.part01.rar
https://www.heroupload.com/9069dddd1da6acdc/Thadam.2019.Tamil.Ultra.HD.4K.UNTOUCHED.AVC.DD5.1.ESub-BWT.part02.rar
https://www.heroupload.com/903bd1ca049c35b0/Thadam.2019.Tamil.Ultra.HD.4K.UNTOUCHED.AVC.DD5.1.ESub-BWT.part03.rar
https://www.heroupload.com/ce93df360ecd3ee4/Thadam.2019.Tamil.Ultra.HD.4K.UNTOUCHED.AVC.DD5.1.ESub-BWT.part04.rar
https://www.heroupload.com/56e043c67eb0da9f/Thadam.2019.Tamil.Ultra.HD.4K.UNTOUCHED.AVC.DD5.1.ESub-BWT.part05.rar
https://www.heroupload.com/6777a2be1f67499c/Thadam.2019.Tamil.Ultra.HD.4K.UNTOUCHED.AVC.DD5.1.ESub-BWT.part06.rar
https://www.heroupload.com/760fa865873b28ae/Thadam.2019.Tamil.Ultra.HD.4K.UNTOUCHED.AVC.DD5.1.ESub-BWT.part07.rar
https://www.heroupload.com/c1b6a4d3ab6eac31/Thadam.2019.Tamil.Ultra.HD.4K.UNTOUCHED.AVC.DD5.1.ESub-BWT.part08.rar
https://www.heroupload.com/720b63f40e24e7cc/Thadam.2019.Tamil.Ultra.HD.4K.UNTOUCHED.AVC.DD5.1.ESub-BWT.part09.rar
https://www.heroupload.com/2e94efb6b52d6636/Thadam.2019.Tamil.Ultra.HD.4K.UNTOUCHED.AVC.DD5.1.ESub-BWT.part10.rar
https://www.heroupload.com/fedba31cbafb47f4/Thadam.2019.Tamil.Ultra.HD.4K.UNTOUCHED.AVC.DD5.1.ESub-BWT.part11.rar


Buy Premium From My Links & Support Me

Add a comment

Name:* E-Mail:*
Bold Italic Underline Strike | Align left Center Align right | Insert smilies Insert link URLInsert protected URL Select color | Add Hidden Text Insert Quote Convert selected text from selection to Cyrillic (Russian) alphabet Insert spoiler
Enter the code below: *