Rss
Calendar
«    June 2019    »
MonTueWedThuFriSatSun
 12
3456789
10111213141516
17181920212223
24252627282930
Friends of the site
» » Boomerang (2019) Tamil Ultra HD 4K - Untouched - AVC - AAC-MTR
  • Author: wroser
  • |
  • Comments: 0
  • |
  • Views: 56
Boomerang (2019) Tamil Ultra HD 4K - Untouched - AVC - AAC-MTR





Format                                   : MPEG-4
Format profile                           : Base Media
Codec ID                                 : isom (isom)
File size                                : 10.9 GiB
Duration                                 : 2 h 8 min
Overall bit rate mode                    : Variable
Overall bit rate                         : 12.1 Mb/s
Encoded date                             : UTC 2019-04-10 06:26:44
Tagged date                              : UTC 2019-04-10 06:26:44

Video
ID                                       : 1
Format                                   : HEVC
Format/Info                              : High Efficiency Video Coding
Format profile                           : Main@L5@Main
Codec ID                                 : hev1
Codec ID/Info                            : High Efficiency Video Coding
Duration                                 : 2 h 8 min
Bit rate                                 : 12.0 Mb/s
Width                                    : 3 840 pixels
Height                                   : 2 160 pixels
Display aspect ratio                     : 16:9
Frame rate mode                          : Constant
Frame rate                               : 23.976 (24000/1001) FPS
Color space                              : YUV
Chroma subsampling                       : 4:2:0 (Type 0)
Bit depth                                : 8 bits
Bits/(Pixel*Frame)                       : 0.060
Stream size                              : 10.8 GiB (99%)
Encoded date                             : UTC 2019-04-10 06:26:44
Tagged date                              : UTC 2019-04-10 06:26:44
Color range                              : Limited
Color primaries                          : BT.709
Transfer characteristics                 : BT.709
Matrix coefficients                      : BT.709
Codec configuration box                  : hvcC

Audio
ID                                       : 2
Format                                   : AAC LC
Format/Info                              : Advanced Audio Codec Low Complexity
Codec ID                                 : mp4a-40-2
Duration                                 : 2 h 8 min
Bit rate mode                            : Variable
Bit rate                                 : 128 kb/s
Maximum bit rate                         : 133 kb/s
Channel(s)                               : 2 channels
Channel layout                           : L R
Sampling rate                            : 48.0 kHz
Frame rate                               : 46.875 FPS (1024 SPF)
Compression mode                         : Lossy
Stream size                              : 115 MiB (1%)
Language                                 : English
Encoded date                             : UTC 2019-04-10 06:26:44
Tagged date                              : UTC 2019-04-10 06:26:44


Boomerang (2019) Tamil Ultra HD 4K - Untouched - AVC - AAC-MTRBoomerang (2019) Tamil Ultra HD 4K - Untouched - AVC - AAC-MTRBoomerang (2019) Tamil Ultra HD 4K - Untouched - AVC - AAC-MTRBoomerang (2019) Tamil Ultra HD 4K - Untouched - AVC - AAC-MTRBoomerang (2019) Tamil Ultra HD 4K - Untouched - AVC - AAC-MTRBoomerang (2019) Tamil Ultra HD 4K - Untouched - AVC - AAC-MTR

SINGLE DIRECT FAST LINKS

https://www.heroupload.com/f0bd38871485c03a/Boomerang.2019.4K.Untouched.UHD.MP4.ESubs.Tamil-MTR.mp4


1GB LINKS


https://www.heroupload.com/fbdc09ded6fcc382/Boomerang.2019.4K.Untouched.UHD.MP4.ESubs.Tamil-MTR.part01.rar
https://www.heroupload.com/a60dd926cb510285/Boomerang.2019.4K.Untouched.UHD.MP4.ESubs.Tamil-MTR.part02.rar
https://www.heroupload.com/afd347d51045b108/Boomerang.2019.4K.Untouched.UHD.MP4.ESubs.Tamil-MTR.part03.rar
https://www.heroupload.com/a09c1be417b77d65/Boomerang.2019.4K.Untouched.UHD.MP4.ESubs.Tamil-MTR.part04.rar
https://www.heroupload.com/0f161e5d4c8ff3d7/Boomerang.2019.4K.Untouched.UHD.MP4.ESubs.Tamil-MTR.part05.rar
https://www.heroupload.com/2eb0fa8e0265f5cd/Boomerang.2019.4K.Untouched.UHD.MP4.ESubs.Tamil-MTR.part06.rar
https://www.heroupload.com/9255e0a91e999127/Boomerang.2019.4K.Untouched.UHD.MP4.ESubs.Tamil-MTR.part07.rar
https://www.heroupload.com/44991f27cafe0427/Boomerang.2019.4K.Untouched.UHD.MP4.ESubs.Tamil-MTR.part08.rar
https://www.heroupload.com/5d3fce253cac705f/Boomerang.2019.4K.Untouched.UHD.MP4.ESubs.Tamil-MTR.part09.rar
https://www.heroupload.com/af03f1e4e9f639f3/Boomerang.2019.4K.Untouched.UHD.MP4.ESubs.Tamil-MTR.part10.rar
https://www.heroupload.com/3c82466a739cc4af/Boomerang.2019.4K.Untouched.UHD.MP4.ESubs.Tamil-MTR.part11.rar
https://www.heroupload.com/b7c2b7b24b366c9c/Boomerang.2019.4K.Untouched.UHD.MP4.ESubs.Tamil-MTR.srt




Buy Premium From My Links & Support Me

Add a comment

Name:* E-Mail:*
Bold Italic Underline Strike | Align left Center Align right | Insert smilies Insert link URLInsert protected URL Select color | Add Hidden Text Insert Quote Convert selected text from selection to Cyrillic (Russian) alphabet Insert spoiler
Enter the code below: *