Rss
Calendar
«    July 2019    »
MonTueWedThuFriSatSun
1234567
891011121314
15161718192021
22232425262728
293031 
Friends of the site
» » Kavan (2019) Hindi - 1080p - WEB-HD - AVC - AAC-GM Exclusive
  • Author: wroser
  • |
  • Comments: 0
  • |
  • Views: 48
Kavan (2019) Hindi - 1080p - WEB-HD - AVC - AAC-GM Exclusive





Format                                   : MPEG-4
Format profile                           : Base Media
Codec ID                                 : isom (isom/iso2/avc1/mp41)
File size                                : 2.03 GiB
Duration                                 : 2 h 16 min
Overall bit rate                         : 2 132 kb/s
Writing application                      : Lavf58.9.100

Video
ID                                       : 1
Format                                   : AVC
Format/Info                              : Advanced Video Codec
Format profile                           : High@L4
Format settings                          : CABAC / 3 Ref Frames
Format settings, CABAC                   : Yes
Format settings, RefFrames               : 3 frames
Codec ID                                 : avc1
Codec ID/Info                            : Advanced Video Coding
Duration                                 : 2 h 16 min
Bit rate                                 : 1 998 kb/s
Width                                    : 1 920 pixels
Height                                   : 1 080 pixels
Display aspect ratio                     : 16:9
Frame rate mode                          : Constant
Frame rate                               : 25.000 FPS
Color space                              : YUV
Chroma subsampling                       : 4:2:0
Bit depth                                : 8 bits
Scan type                                : Progressive
Bits/(Pixel*Frame)                       : 0.039
Stream size                              : 1.90 GiB (94%)
Writing library                          : x264 core 155 r2901 7d0ff22
Color range                              : Limited
Color primaries                          : BT.709
Transfer characteristics                 : BT.709
Matrix coefficients                      : BT.709
Codec configuration box                  : avcC

Audio
ID                                       : 2
Format                                   : AAC LC
Format/Info                              : Advanced Audio Codec Low Complexity
Codec ID                                 : mp4a-40-2
Duration                                 : 2 h 16 min
Bit rate mode                            : Constant
Bit rate                                 : 128 kb/s
Channel(s)                               : 2 channels
Channel layout                           : L R
Sampling rate                            : 44.1 kHz
Frame rate                               : 43.066 FPS (1024 SPF)
Compression mode                         : Lossy
Stream size                              : 125 MiB (6%)
Language                                 : English
Default                                  : Yes
Alternate group                          : 1



Kavan (2019) Hindi - 1080p - WEB-HD - AVC - AAC-GM Exclusive
SINGLE DIRECT FAST LINKS


https://www.heroupload.com/8e4a651ab4f9a150/Kavan.2019.Hindi.1080p.WEB-HD.AVC.AAC-GM.mp4




Buy Premium From My Links & Support Me

Add a comment

Name:* E-Mail:*
Bold Italic Underline Strike | Align left Center Align right | Insert smilies Insert link URLInsert protected URL Select color | Add Hidden Text Insert Quote Convert selected text from selection to Cyrillic (Russian) alphabet Insert spoiler
Enter the code below: *