Rss
Calendar
«    June 2019    »
MonTueWedThuFriSatSun
 12
3456789
10111213141516
17181920212223
24252627282930
Friends of the site
» » 2.0 (2018) Hindi - 1080p - WEB-HD - AVC - DD5.1 - ESub-BollywoodA2z
  • Author: wroser
  • |
  • Comments: 0
  • |
  • Views: 21
2.0 (2018) Hindi - 1080p - WEB-HD - AVC - DD5.1 - ESub-BollywoodA2z





Format                                   : Matroska
Format version                           : Version 4
File size                                : 3.08 GiB
Duration                                 : 2 h 21 min
Overall bit rate                         : 3 115 kb/s
Encoded date                             : UTC 2019-04-22 14:00:45
Writing application                      : mkvmerge v29.0.0 ('Like It Or Not') 32-bit
Writing library                          : libebml v1.3.6 + libmatroska v1.4.9

Video
ID                                       : 1
Format                                   : AVC
Format/Info                              : Advanced Video Codec
Format profile                           : High@L4
Format settings                          : CABAC / 4 Ref Frames
Format settings, CABAC                   : Yes
Format settings, RefFrames               : 4 frames
Codec ID                                 : V_MPEG4/ISO/AVC
Duration                                 : 2 h 21 min
Bit rate                                 : 2 500 kb/s
Width                                    : 1 920 pixels
Height                                   : 816 pixels
Display aspect ratio                     : 2.35:1
Frame rate mode                          : Constant
Frame rate                               : 25.000 FPS
Color space                              : YUV
Chroma subsampling                       : 4:2:0
Bit depth                                : 8 bits
Scan type                                : Progressive
Bits/(Pixel*Frame)                       : 0.064
Stream size                              : 2.44 GiB (79%)
Writing library                          : x264 core 155 r2901 7d0ff22
Encoding settings                        : cabac=1 / ref=1 / deblock=1:0:0 / analyse=0x3:0x113 / me=hex / subme=2 / psy=1 / psy_rd=1.00:0.00 / mixed_ref=0 / me_range=16 / chroma_me=1 / trellis=0 / 8x8dct=1 / cqm=0 / deadzone=21,11 / fast_pskip=1 / chroma_qp_offset=0 / threads=25 / lookahead_threads=6 / sliced_threads=0 / nr=0 / decimate=1 / interlaced=0 / bluray_compat=0 / constrained_intra=0 / bframes=3 / b_pyramid=2 / b_adapt=1 / b_bias=0 / direct=1 / weightb=1 / open_gop=0 / weightp=1 / keyint=250 / keyint_min=25 / scenecut=40 / intra_refresh=0 / rc_lookahead=10 / rc=abr / mbtree=1 / bitrate=2500 / ratetol=1.0 / qcomp=0.60 / qpmin=0 / qpmax=69 / qpstep=4 / vbv_maxrate=25000 / vbv_bufsize=31250 / nal_hrd=none / filler=0 / ip_ratio=1.40 / aq=1:1.00
Default                                  : Yes
Forced                                   : No
Color range                              : Limited
Color primaries                          : BT.709
Transfer characteristics                 : BT.709
Matrix coefficients                      : BT.709

Audio
ID                                       : 2
Format                                   : E-AC-3
Format/Info                              : Enhanced AC-3
Commercial name                          : Dolby Digital Plus
Codec ID                                 : A_EAC3
Duration                                 : 2 h 21 min
Bit rate mode                            : Constant
Bit rate                                 : 640 kb/s
Channel(s)                               : 6 channels
Channel layout                           : L R C LFE Ls Rs
Sampling rate                            : 48.0 kHz
Frame rate                               : 31.250 FPS (1536 SPF)
Compression mode                         : Lossy
Stream size                              : 647 MiB (21%)
Language                                 : Hindi
Service kind                             : Complete Main
Default                                  : No
Forced                                   : No

Text
ID                                       : 3
Format                                   : UTF-8
Codec ID                                 : S_TEXT/UTF8
Codec ID/Info                            : UTF-8 Plain Text
Duration                                 : 2 h 16 min
Bit rate                                 : 46 b/s
Count of elements                        : 1347
Stream size                              : 46.3 KiB (0%)
Language                                 : English
Default                                  : Yes
Forced                                   : No



2.0 (2018) Hindi - 1080p - WEB-HD - AVC - DD5.1 - ESub-BollywoodA2z2.0 (2018) Hindi - 1080p - WEB-HD - AVC - DD5.1 - ESub-BollywoodA2z2.0 (2018) Hindi - 1080p - WEB-HD - AVC - DD5.1 - ESub-BollywoodA2z2.0 (2018) Hindi - 1080p - WEB-HD - AVC - DD5.1 - ESub-BollywoodA2z2.0 (2018) Hindi - 1080p - WEB-HD - AVC - DD5.1 - ESub-BollywoodA2z2.0 (2018) Hindi - 1080p - WEB-HD - AVC - DD5.1 - ESub-BollywoodA2z2.0 (2018) Hindi - 1080p - WEB-HD - AVC - DD5.1 - ESub-BollywoodA2z2.0 (2018) Hindi - 1080p - WEB-HD - AVC - DD5.1 - ESub-BollywoodA2z2.0 (2018) Hindi - 1080p - WEB-HD - AVC - DD5.1 - ESub-BollywoodA2z2.0 (2018) Hindi - 1080p - WEB-HD - AVC - DD5.1 - ESub-BollywoodA2z2.0 (2018) Hindi - 1080p - WEB-HD - AVC - DD5.1 - ESub-BollywoodA2z
SINGLE DIRECT FAST LINKS

https://www.heroupload.com/a25832b6f07102a1/2.0.2018.Hindi.WEB-HD.1080p.AVC.DD5.1.ESub-BollywoodA2z.mkv




Buy Premium From My Links & Support Me

Add a comment

Name:* E-Mail:*
Bold Italic Underline Strike | Align left Center Align right | Insert smilies Insert link URLInsert protected URL Select color | Add Hidden Text Insert Quote Convert selected text from selection to Cyrillic (Russian) alphabet Insert spoiler
Enter the code below: *