Rss
Calendar
«    May 2019    »
MonTueWedThuFriSatSun
 12345
6789101112
13141516171819
20212223242526
2728293031 
Friends of the site
» » Avengers Endgame (2019) NEW 720p HDCAM-1XBET
  • Author: wroser
  • |
  • Comments: 0
  • |
  • Views: 73
Avengers Endgame (2019) NEW 720p HDCAM-1XBET




Format                                   : Matroska
Format version                           : Version 4
File size                                : 3.74 GiB
Duration                                 : 2 h 46 min
Overall bit rate mode                    : Variable
Overall bit rate                         : 3 225 kb/s
Encoded date                             : UTC 2019-04-24 13:32:08
Writing application                      : TMPGEnc Video Mastering Works 6 Version. 6.2.10.37
Writing library                          : TMPGEnc Video Mastering Works 6 Version. 6.2.10.37

Video
ID                                       : 2
Format                                   : AVC
Format/Info                              : Advanced Video Codec
Format profile                           : High@L3.1
Format settings                          : CABAC / 6 Ref Frames
Format settings, CABAC                   : Yes
Format settings, RefFrames               : 6 frames
Codec ID                                 : V_MPEG4/ISO/AVC
Duration                                 : 2 h 46 min
Bit rate mode                            : Variable
Bit rate                                 : 3 000 kb/s
Maximum bit rate                         : 16.4 Mb/s
Width                                    : 1 280 pixels
Height                                   : 536 pixels
Display aspect ratio                     : 2.40:1
Frame rate mode                          : Constant
Frame rate                               : 30.000 FPS
Standard                                 : Component
Color space                              : YUV
Chroma subsampling                       : 4:2:0
Bit depth                                : 8 bits
Scan type                                : Progressive
Bits/(Pixel*Frame)                       : 0.146
Stream size                              : 3.41 GiB (91%)
Writing library                          : x264 core 148
Encoding settings                        : cabac=1 / ref=6 / deblock=1:0:0 / analyse=0x3:0x113 / me=hex / subme=7 / psy=1 / psy_rd=1.00:0.00 / mixed_ref=1 / me_range=16 / chroma_me=1 / trellis=1 / 8x8dct=1 / cqm=1 / deadzone=21,11 / fast_pskip=1 / chroma_qp_offset=-2 / threads=12 / lookahead_threads=2 / sliced_threads=0 / slices=1 / nr=0 / decimate=1 / interlaced=0 / minigop=0 / stitchable=1 / constrained_intra=0 / bframes=3 / b_pyramid=0 / b_adapt=1 / b_bias=0 / direct=1 / weightb=1 / open_gop=1 / weightp=2 / keyint=250 / keyint_min=25 / scenecut=40 / intra_refresh=0 / rc_lookahead=40 / rc=abr / mbtree=1 / bitrate=3000 / ratetol=1.0 / qcomp=0.60 / qpmin=3 / qpmax=69 / qpstep=4 / vbv_maxrate=16400 / vbv_bufsize=16400 / nal_hrd=vbr / filler=0 / ip_ratio=1.40 / aq=1:1.00
Default                                  : Yes
Forced                                   : No
Color range                              : Limited
Color primaries                          : BT.709
Transfer characteristics                 : BT.709
Matrix coefficients                      : BT.709

Audio
ID                                       : 1
Format                                   : AC-3
Format/Info                              : Audio Coding 3
Commercial name                          : Dolby Digital
Codec ID                                 : A_AC3
Duration                                 : 2 h 46 min
Bit rate mode                            : Constant
Bit rate                                 : 224 kb/s
Channel(s)                               : 2 channels
Channel layout                           : L R
Sampling rate                            : 48.0 kHz
Frame rate                               : 31.250 FPS (1536 SPF)
Bit depth                                : 16 bits
Compression mode                         : Lossy
Stream size                              : 266 MiB (7%)
Service kind                             : Complete Main
Default                                  : Yes
Forced                                   : No





Avengers Endgame (2019) NEW 720p HDCAM-1XBET
Avengers Endgame (2019) NEW 720p HDCAM-1XBET
Avengers Endgame (2019) NEW 720p HDCAM-1XBET
Avengers Endgame (2019) NEW 720p HDCAM-1XBET
Avengers Endgame (2019) NEW 720p HDCAM-1XBET
Avengers Endgame (2019) NEW 720p HDCAM-1XBET
Avengers Endgame (2019) NEW 720p HDCAM-1XBET
Avengers Endgame (2019) NEW 720p HDCAM-1XBET
Avengers Endgame (2019) NEW 720p HDCAM-1XBET
Avengers Endgame (2019) NEW 720p HDCAM-1XBET
Avengers Endgame (2019) NEW 720p HDCAM-1XBET
Avengers Endgame (2019) NEW 720p HDCAM-1XBET

SINGLE DIRECT FAST LINKS

https://www.heroupload.com/d9eb136e405645c8/Avengers.Endgame.2019.720p.HDCAM-1XBET.mkv


1GB LINKS


https://www.heroupload.com/4ec217d8e9de3cd9/Avengers.Endgame.2019.720p.HDCAM-1XBET.part1.rar
https://www.heroupload.com/32542f81b4e37a97/Avengers.Endgame.2019.720p.HDCAM-1XBET.part2.rar
https://www.heroupload.com/1ffc66999b38983a/Avengers.Endgame.2019.720p.HDCAM-1XBET.part3.rar
https://www.heroupload.com/66b9ef9ed19cd5dc/Avengers.Endgame.2019.720p.HDCAM-1XBET.part4.rar



Buy Premium From My Links & Support Me

Add a comment

Name:* E-Mail:*
Bold Italic Underline Strike | Align left Center Align right | Insert smilies Insert link URLInsert protected URL Select color | Add Hidden Text Insert Quote Convert selected text from selection to Cyrillic (Russian) alphabet Insert spoiler
Enter the code below: *