Rss
Calendar
«    June 2019    »
MonTueWedThuFriSatSun
 12
3456789
10111213141516
17181920212223
24252627282930
Friends of the site
» » Avengers : Endgame (2019) 1080p - HDCAM-Rip - x264 - MP3-BWT
  • Author: wroser
  • |
  • Comments: 0
  • |
  • Views: 52
Avengers : Endgame (2019) 1080p - HDCAM-Rip - x264 - MP3-BWT





Format                                   : Matroska
Format version                           : Version 4
File size                                : 3.60 GiB
Duration                                 : 2 h 46 min
Overall bit rate                         : 3 098 kb/s
Encoded date                             : UTC 2019-04-25 23:39:01
Writing application                      : mkvmerge v29.0.0 ('Like It Or Not') 32-bit
Writing library                          : libebml v1.3.6 + libmatroska v1.4.9

Video
ID                                       : 1
Format                                   : AVC
Format/Info                              : Advanced Video Codec
Format profile                           : High@L4
Format settings                          : CABAC / 4 Ref Frames
Format settings, CABAC                   : Yes
Format settings, RefFrames               : 4 frames
Codec ID                                 : V_MPEG4/ISO/AVC
Duration                                 : 2 h 46 min
Bit rate                                 : 3 000 kb/s
Width                                    : 1 920 pixels
Height                                   : 804 pixels
Display aspect ratio                     : 2.40:1
Frame rate mode                          : Constant
Frame rate                               : 30.000 FPS
Color space                              : YUV
Chroma subsampling                       : 4:2:0
Bit depth                                : 8 bits
Scan type                                : Progressive
Bits/(Pixel*Frame)                       : 0.065
Stream size                              : 3.48 GiB (97%)
Writing library                          : x264 core 155 r2901 7d0ff22
Encoding settings                        : cabac=1 / ref=1 / deblock=1:0:0 / analyse=0x3:0x113 / me=hex / subme=2 / psy=1 / psy_rd=1.00:0.00 / mixed_ref=0 / me_range=16 / chroma_me=1 / trellis=0 / 8x8dct=1 / cqm=0 / deadzone=21,11 / fast_pskip=1 / chroma_qp_offset=0 / threads=25 / lookahead_threads=6 / sliced_threads=0 / nr=0 / decimate=1 / interlaced=0 / bluray_compat=0 / constrained_intra=0 / bframes=3 / b_pyramid=2 / b_adapt=1 / b_bias=0 / direct=1 / weightb=1 / open_gop=0 / weightp=1 / keyint=300 / keyint_min=30 / scenecut=40 / intra_refresh=0 / rc_lookahead=10 / rc=abr / mbtree=1 / bitrate=3000 / ratetol=1.0 / qcomp=0.60 / qpmin=0 / qpmax=69 / qpstep=4 / vbv_maxrate=25000 / vbv_bufsize=31250 / nal_hrd=none / filler=0 / ip_ratio=1.40 / aq=1:1.00
Language                                 : English
Default                                  : Yes
Forced                                   : No
Color range                              : Limited
Color primaries                          : BT.709
Transfer characteristics                 : BT.709
Matrix coefficients                      : BT.709

Audio
ID                                       : 2
Format                                   : MPEG Audio
Format version                           : Version 1
Format profile                           : Layer 3
Format settings                          : Joint stereo / MS Stereo
Codec ID                                 : A_MPEG/L3
Codec ID/Hint                            : MP3
Duration                                 : 2 h 46 min
Bit rate mode                            : Constant
Bit rate                                 : 96.0 kb/s
Channel(s)                               : 2 channels
Sampling rate                            : 48.0 kHz
Frame rate                               : 41.667 FPS (1152 SPF)
Compression mode                         : Lossy
Stream size                              : 114 MiB (3%)
Language                                 : English
Default                                  : Yes
Forced                                   : No



Avengers : Endgame (2019) 1080p - HDCAM-Rip - x264 - MP3-BWTAvengers : Endgame (2019) 1080p - HDCAM-Rip - x264 - MP3-BWTAvengers : Endgame (2019) 1080p - HDCAM-Rip - x264 - MP3-BWTAvengers : Endgame (2019) 1080p - HDCAM-Rip - x264 - MP3-BWTAvengers : Endgame (2019) 1080p - HDCAM-Rip - x264 - MP3-BWTAvengers : Endgame (2019) 1080p - HDCAM-Rip - x264 - MP3-BWTAvengers : Endgame (2019) 1080p - HDCAM-Rip - x264 - MP3-BWTAvengers : Endgame (2019) 1080p - HDCAM-Rip - x264 - MP3-BWTAvengers : Endgame (2019) 1080p - HDCAM-Rip - x264 - MP3-BWT



SINGLE DIRECT FAST LINKS

https://www.heroupload.com/c0f94566dcd65a4f/Avengers.Endgame.2019.English.HDCAM-Rip.1080p.x264.MP3-BWT.mkv


1GB LINKS


https://www.heroupload.com/cdcb51fd482f94d8/Avengers.Endgame.2019.English.HDCAM-Rip.1080p.x264.MP3-BWT.part1.rar
https://www.heroupload.com/7bcdfbc1f5f34bc4/Avengers.Endgame.2019.English.HDCAM-Rip.1080p.x264.MP3-BWT.part2.rar
https://www.heroupload.com/3d8cea2073f30046/Avengers.Endgame.2019.English.HDCAM-Rip.1080p.x264.MP3-BWT.part3.rar
https://www.heroupload.com/45c0055bfb878986/Avengers.Endgame.2019.English.HDCAM-Rip.1080p.x264.MP3-BWT.part4.rar


Buy Premium From My Links & Support Me

Add a comment

Name:* E-Mail:*
Bold Italic Underline Strike | Align left Center Align right | Insert smilies Insert link URLInsert protected URL Select color | Add Hidden Text Insert Quote Convert selected text from selection to Cyrillic (Russian) alphabet Insert spoiler
Enter the code below: *