Rss
Calendar
«    June 2019    »
MonTueWedThuFriSatSun
 12
3456789
10111213141516
17181920212223
24252627282930
Friends of the site
» » Aghavan (2019) Tamil - 1080p - WEB-HD - AVC - AAC-MTR
  • Author: wroser
  • |
  • Comments: 0
  • |
  • Views: 43
Aghavan (2019) Tamil - 1080p - WEB-HD - AVC - AAC-MTR





Format                      : MPEG-4
Format profile              : Base Media
Codec ID                    : isom (isom)
File size                   : 4.44 GiB
Duration                    : 2 h 32 min
Overall bit rate mode       : Variable
Overall bit rate            : 4 168 kb/s
Encoded date                : UTC 2019-04-27 11:13:51
Tagged date                 : UTC 2019-04-27 11:13:51
Writing application         : MkvToMp4 [www.mkvtomp4.ru] version 0.224 (x64)

Video
ID                          : 1
Format                      : AVC
Format/Info                 : Advanced Video Codec
Format profile              : High@L4.1
Format settings             : CABAC / 4 Ref Frames
Format settings, CABAC      : Yes
Format settings, Reference  : 4 frames
Format settings, GOP        : M=4, N=50
Codec ID                    : avc1
Codec ID/Info               : Advanced Video Coding
Duration                    : 2 h 32 min
Bit rate                    : 4 037 kb/s
Nominal bit rate            : 5 000 kb/s
Maximum bit rate            : 7 038 kb/s
Width                       : 1 920 pixels
Height                      : 1 080 pixels
Display aspect ratio        : 16:9
Frame rate mode             : Constant
Frame rate                  : 25.000 FPS
Color space                 : YUV
Chroma subsampling          : 4:2:0
Bit depth                   : 8 bits
Scan type                   : Progressive
Bits/(Pixel*Frame)          : 0.078
Stream size                 : 4.30 GiB (97%)
Writing library             : x264 core 148 r2694 3b70645
Encoding settings           : cabac=1 / ref=3 / deblock=1:0:0 / analyse=0x3:0x113 / me=hex / subme=7 / psy=1 / psy_rd=1.00:0.00 / mixed_ref=1 / me_range=16 / chroma_me=1 / trellis=1 / 8x8dct=1 / cqm=0 / deadzone=21,11 / fast_pskip=1 / chroma_qp_offset=-2 / threads=34 / lookahead_threads=5 / sliced_threads=0 / nr=0 / decimate=1 / interlaced=0 / bluray_compat=0 / constrained_intra=0 / bframes=3 / b_pyramid=2 / b_adapt=1 / b_bias=0 / direct=1 / weightb=1 / open_gop=0 / weightp=2 / keyint=50 / keyint_min=26 / scenecut=0 / intra_refresh=0 / rc_lookahead=40 / rc=cbr / mbtree=1 / bitrate=5000 / ratetol=1.0 / qcomp=0.60 / qpmin=0 / qpmax=69 / qpstep=4 / vbv_maxrate=5000 / vbv_bufsize=5000 / nal_hrd=none / filler=0 / ip_ratio=1.40 / aq=1:1.00
Language                    : English
Tagged date                 : UTC 2019-04-27 11:14:09
Codec configuration box     : avcC

Audio
ID                          : 2
Format                      : AAC LC
Format/Info                 : Advanced Audio Codec Low Complexity
Codec ID                    : mp4a-40-2
Duration                    : 2 h 32 min
Bit rate mode               : Variable
Bit rate                    : 127 kb/s
Maximum bit rate            : 141 kb/s
Channel(s)                  : 2 channels
Channel layout              : L R
Sampling rate               : 48.0 kHz
Frame rate                  : 46.875 FPS (1024 SPF)
Compression mode            : Lossy
Stream size                 : 139 MiB (3%)
Language                    : English
Default                     : Yes
Alternate group             : 1
Encoded date                : UTC 2019-04-27 11:14:05
Tagged date                 : UTC 2019-04-27 11:14:09



Aghavan (2019) Tamil - 1080p - WEB-HD - AVC - AAC-MTRAghavan (2019) Tamil - 1080p - WEB-HD - AVC - AAC-MTRAghavan (2019) Tamil - 1080p - WEB-HD - AVC - AAC-MTRAghavan (2019) Tamil - 1080p - WEB-HD - AVC - AAC-MTR


SINGLE DIRECT FAST LINKS

https://www.heroupload.com/8806af60a79e962f/Aghavan.2019.Tamil.1080p.HD.AVC.x264-MTR.mp4


1GB LINKS


https://www.heroupload.com/7eb612a2e45b0814/Aghavan.2019.Tamil.1080p.HD.AVC.x264-MTR.part1.rar
https://www.heroupload.com/110e1c505d981563/Aghavan.2019.Tamil.1080p.HD.AVC.x264-MTR.part2.rar
https://www.heroupload.com/33eefd954f7cfda2/Aghavan.2019.Tamil.1080p.HD.AVC.x264-MTR.part3.rar
https://www.heroupload.com/211e431295d29bc3/Aghavan.2019.Tamil.1080p.HD.AVC.x264-MTR.part4.rar
https://www.heroupload.com/b8b304d7a62c7fba/Aghavan.2019.Tamil.1080p.HD.AVC.x264-MTR.part5.rar


Buy Premium From My Links & Support Me

Add a comment

Name:* E-Mail:*
Bold Italic Underline Strike | Align left Center Align right | Insert smilies Insert link URLInsert protected URL Select color | Add Hidden Text Insert Quote Convert selected text from selection to Cyrillic (Russian) alphabet Insert spoiler
Enter the code below: *