Rss
Calendar
«    May 2019    »
MonTueWedThuFriSatSun
 12345
6789101112
13141516171819
20212223242526
2728293031 
Friends of the site
» » Gangs of Madras (2019) Tamil Ultra HD 4K - Untouched - AVC - AAC-MTR
  • Author: wroser
  • |
  • Comments: 0
  • |
  • Views: 22
Gangs of Madras (2019) Tamil Ultra HD 4K - Untouched - AVC - AAC-MTR






Format                                   : MPEG-4
Format profile                           : Base Media
Codec ID                                 : isom (isom)
File size                                : 11.3 GiB
Duration                                 : 2 h 13 min
Overall bit rate mode                    : Variable
Overall bit rate                         : 12.1 Mb/s
Encoded date                             : UTC 2019-05-03 05:51:48
Tagged date                              : UTC 2019-05-03 05:51:48

Video
ID                                       : 1
Format                                   : HEVC
Format/Info                              : High Efficiency Video Coding
Format profile                           : Main@L5@Main
Codec ID                                 : hev1
Codec ID/Info                            : High Efficiency Video Coding
Duration                                 : 2 h 13 min
Bit rate                                 : 12.0 Mb/s
Width                                    : 3 840 pixels
Height                                   : 2 160 pixels
Display aspect ratio                     : 16:9
Frame rate mode                          : Constant
Frame rate                               : 23.976 (24000/1001) FPS
Standard                                 : PAL
Color space                              : YUV
Chroma subsampling                       : 4:2:0 (Type 0)
Bit depth                                : 8 bits
Bits/(Pixel*Frame)                       : 0.060
Stream size                              : 11.2 GiB (99%)
Encoded date                             : UTC 2019-05-03 05:51:48
Tagged date                              : UTC 2019-05-03 05:51:48
Color range                              : Limited
Color primaries                          : BT.709
Transfer characteristics                 : BT.709
Matrix coefficients                      : BT.709
Codec configuration box                  : hvcC

Audio
ID                                       : 2
Format                                   : AAC LC
Format/Info                              : Advanced Audio Codec Low Complexity
Codec ID                                 : mp4a-40-2
Duration                                 : 2 h 13 min
Bit rate mode                            : Variable
Bit rate                                 : 128 kb/s
Maximum bit rate                         : 133 kb/s
Channel(s)                               : 2 channels
Channel layout                           : L R
Sampling rate                            : 48.0 kHz
Frame rate                               : 46.875 FPS (1024 SPF)
Compression mode                         : Lossy
Stream size                              : 119 MiB (1%)
Encoded date                             : UTC 2019-05-03 05:51:48
Tagged date                              : UTC 2019-05-03 05:51:48




Gangs of Madras (2019) Tamil Ultra HD 4K - Untouched - AVC - AAC-MTRGangs of Madras (2019) Tamil Ultra HD 4K - Untouched - AVC - AAC-MTRGangs of Madras (2019) Tamil Ultra HD 4K - Untouched - AVC - AAC-MTRGangs of Madras (2019) Tamil Ultra HD 4K - Untouched - AVC - AAC-MTR

SINGLE DIRECT FAST LINKS


https://www.heroupload.com/80b5f34f33b0fff6/Gangs.of.Madras.2019.4K.Untouched.UHD.MP4.ESubs.Tamil-MTR.mp4


1GB LINKS



https://www.heroupload.com/b247fce3d43d4601/Gangs.of.Madras.2019.4K.Untouched.UHD.MP4.ESubs.Tamil-MTR.part01.rar
https://www.heroupload.com/5f87a0f1b1c39c7a/Gangs.of.Madras.2019.4K.Untouched.UHD.MP4.ESubs.Tamil-MTR.part02.rar
https://www.heroupload.com/2dce5540542c9159/Gangs.of.Madras.2019.4K.Untouched.UHD.MP4.ESubs.Tamil-MTR.part03.rar
https://www.heroupload.com/a27424b2db626aee/Gangs.of.Madras.2019.4K.Untouched.UHD.MP4.ESubs.Tamil-MTR.part04.rar
https://www.heroupload.com/320347e3ac2c0917/Gangs.of.Madras.2019.4K.Untouched.UHD.MP4.ESubs.Tamil-MTR.part05.rar
https://www.heroupload.com/e5cbca1731e180dc/Gangs.of.Madras.2019.4K.Untouched.UHD.MP4.ESubs.Tamil-MTR.part06.rar
https://www.heroupload.com/22a89fa2d219a2f2/Gangs.of.Madras.2019.4K.Untouched.UHD.MP4.ESubs.Tamil-MTR.part07.rar
https://www.heroupload.com/27abe0bda451feb7/Gangs.of.Madras.2019.4K.Untouched.UHD.MP4.ESubs.Tamil-MTR.part08.rar
https://www.heroupload.com/6f920327484801e5/Gangs.of.Madras.2019.4K.Untouched.UHD.MP4.ESubs.Tamil-MTR.part09.rar
https://www.heroupload.com/d52848d49f5941e6/Gangs.of.Madras.2019.4K.Untouched.UHD.MP4.ESubs.Tamil-MTR.part10.rar
https://www.heroupload.com/3761f23ae5268ff2/Gangs.of.Madras.2019.4K.Untouched.UHD.MP4.ESubs.Tamil-MTR.part11.rar
https://www.heroupload.com/4589b1fd7db3462c/Gangs.of.Madras.2019.4K.Untouched.UHD.MP4.ESubs.Tamil-MTR.part12.rar
https://www.heroupload.com/46411d1c2715e2f9/Gangs.of.Madras.2019.4K.Untouched.UHD.MP4.ESubs.Tamil-MTR.srt



Buy Premium From My Links & Support Me

Add a comment

Name:* E-Mail:*
Bold Italic Underline Strike | Align left Center Align right | Insert smilies Insert link URLInsert protected URL Select color | Add Hidden Text Insert Quote Convert selected text from selection to Cyrillic (Russian) alphabet Insert spoiler
Enter the code below: *