Rss
Calendar
«    May 2019    »
MonTueWedThuFriSatSun
 12345
6789101112
13141516171819
20212223242526
2728293031 
Friends of the site
» » Naa... Nuvve (2018) 1080p - WEB-DL - AVC - UNTOUCHED - AAC-BWT
  • Author: wroser
  • |
  • Comments: 0
  • |
  • Views: 14
Naa... Nuvve (2018) 1080p - WEB-DL - AVC - UNTOUCHED - AAC-BWT





Format                      : Matroska
Format version              : Version 4
File size                   : 4.47 GiB
Duration                    : 2 h 4 min
Overall bit rate            : 5 145 kb/s
Encoded date                : UTC 2019-05-09 13:01:42
Writing application         : mkvmerge v33.1.0 ('Primrose') 32-bit
Writing library             : libebml v1.3.7 + libmatroska v1.5.0

Video
ID                          : 1
Format                      : AVC
Format/Info                 : Advanced Video Codec
Format profile              : Baseline@L4
Format settings             : 1 Ref Frames
Format settings, CABAC      : No
Format settings, Reference  : 1 frame
Codec ID                    : V_MPEG4/ISO/AVC
Duration                    : 2 h 4 min
Bit rate mode               : Constant
Bit rate                    : 5 120 kb/s
Width                       : 1 920 pixels
Height                      : 1 080 pixels
Display aspect ratio        : 16:9
Frame rate mode             : Constant
Frame rate                  : 25.000 FPS
Color space                 : YUV
Chroma subsampling          : 4:2:0
Bit depth                   : 8 bits
Scan type                   : Progressive
Bits/(Pixel*Frame)          : 0.099
Stream size                 : 4.36 GiB (98%)
Language                    : Telugu
Default                     : Yes
Forced                      : No

Audio
ID                          : 2
Format                      : AAC LC
Format/Info                 : Advanced Audio Codec Low Complexity
Codec ID                    : A_AAC-2
Duration                    : 2 h 4 min
Bit rate                    : 126 kb/s
Channel(s)                  : 2 channels
Channel layout              : L R
Sampling rate               : 44.1 kHz
Frame rate                  : 43.066 FPS (1024 SPF)
Compression mode            : Lossy
Stream size                 : 112 MiB (2%)
Language                    : Telugu
Default                     : Yes
Forced                      : No


Naa... Nuvve (2018) 1080p - WEB-DL - AVC - UNTOUCHED - AAC-BWT
Naa... Nuvve (2018) 1080p - WEB-DL - AVC - UNTOUCHED - AAC-BWT
Naa... Nuvve (2018) 1080p - WEB-DL - AVC - UNTOUCHED - AAC-BWT
Naa... Nuvve (2018) 1080p - WEB-DL - AVC - UNTOUCHED - AAC-BWT
Naa... Nuvve (2018) 1080p - WEB-DL - AVC - UNTOUCHED - AAC-BWT
Naa... Nuvve (2018) 1080p - WEB-DL - AVC - UNTOUCHED - AAC-BWT
Naa... Nuvve (2018) 1080p - WEB-DL - AVC - UNTOUCHED - AAC-BWT
Naa... Nuvve (2018) 1080p - WEB-DL - AVC - UNTOUCHED - AAC-BWT
SINGLE DIRECT FAST LINKS

https://www.heroupload.com/4b8e2438ad085643/Naa...Nuvve.2018.Telugu.WEB-DL.1080p.AVC.UNTOUCHED-BWT.mkv


1GB LINKS


https://www.heroupload.com/a60c16f367576d4b/Naa...Nuvve.2018.Telugu.WEB-DL.1080p.AVC.UNTOUCHED-BWT.part1.rar
https://www.heroupload.com/a1ca25557477bb0d/Naa...Nuvve.2018.Telugu.WEB-DL.1080p.AVC.UNTOUCHED-BWT.part2.rar
https://www.heroupload.com/8f7f8abc3d4fbaa7/Naa...Nuvve.2018.Telugu.WEB-DL.1080p.AVC.UNTOUCHED-BWT.part3.rar
https://www.heroupload.com/83d31544b62ea1d3/Naa...Nuvve.2018.Telugu.WEB-DL.1080p.AVC.UNTOUCHED-BWT.part4.rar
https://www.heroupload.com/29ef16525ec9330a/Naa...Nuvve.2018.Telugu.WEB-DL.1080p.AVC.UNTOUCHED-BWT.part5.rar


Buy Premium From My Links & Support Me

Add a comment

Name:* E-Mail:*
Bold Italic Underline Strike | Align left Center Align right | Insert smilies Insert link URLInsert protected URL Select color | Add Hidden Text Insert Quote Convert selected text from selection to Cyrillic (Russian) alphabet Insert spoiler
Enter the code below: *