Rss
Calendar
«    May 2019    »
MonTueWedThuFriSatSun
 12345
6789101112
13141516171819
20212223242526
2728293031 
Friends of the site
» » Magnet (2019) 1080p - WEB-DL - AVC - UNTOUCHED - AC3 - ESub-BWT
  • Author: wroser
  • |
  • Comments: 0
  • |
  • Views: 13
Magnet (2019) 1080p - WEB-DL - AVC - UNTOUCHED - AC3 - ESub-BWT




Format                      : Matroska
Format version              : Version 4
File size                   : 8.72 GiB
Duration                    : 2 h 22 min
Overall bit rate            : 8 741 kb/s
Encoded date                : UTC 2019-05-09 12:25:49
Writing application         : mkvmerge v33.1.0 ('Primrose') 32-bit
Writing library             : libebml v1.3.7 + libmatroska v1.5.0

Video
ID                          : 1
Format                      : AVC
Format/Info                 : Advanced Video Codec
Format profile              : High@L4
Format settings             : CABAC / 4 Ref Frames
Format settings, CABAC      : Yes
Format settings, Reference  : 4 frames
Codec ID                    : V_MPEG4/ISO/AVC
Duration                    : 2 h 22 min
Bit rate mode               : Constant
Bit rate                    : 8 515 kb/s
Nominal bit rate            : 10 000 kb/s
Width                       : 1 920 pixels
Height                      : 1 080 pixels
Display aspect ratio        : 16:9
Frame rate mode             : Constant
Frame rate                  : 24.000 FPS
Color space                 : YUV
Chroma subsampling          : 4:2:0
Bit depth                   : 8 bits
Scan type                   : Progressive
Bits/(Pixel*Frame)          : 0.171
Stream size                 : 8.50 GiB (97%)
Language                    : Telugu
Default                     : Yes
Forced                      : No
Color range                 : Limited
Color primaries             : BT.709
Transfer characteristics    : BT.709
Matrix coefficients         : BT.709

Audio
ID                          : 2
Format                      : E-AC-3
Format/Info                 : Enhanced AC-3
Commercial name             : Dolby Digital Plus
Codec ID                    : A_EAC3
Duration                    : 2 h 22 min
Bit rate mode               : Constant
Bit rate                    : 224 kb/s
Channel(s)                  : 2 channels
Channel layout              : L R
Sampling rate               : 48.0 kHz
Frame rate                  : 31.250 FPS (1536 SPF)
Compression mode            : Lossy
Stream size                 : 229 MiB (3%)
Language                    : Telugu
Service kind                : Complete Main
Default                     : Yes
Forced                      : No

Text
ID                          : 3
Format                      : UTF-8
Codec ID                    : S_TEXT/UTF8
Codec ID/Info               : UTF-8 Plain Text
Duration                    : 2 h 18 min
Bit rate                    : 61 b/s
Count of elements           : 1814
Stream size                 : 62.0 KiB (0%)
Language                    : English
Default                     : No
Forced                      : No



Magnet (2019) 1080p - WEB-DL - AVC - UNTOUCHED - AC3 - ESub-BWT
Magnet (2019) 1080p - WEB-DL - AVC - UNTOUCHED - AC3 - ESub-BWT
Magnet (2019) 1080p - WEB-DL - AVC - UNTOUCHED - AC3 - ESub-BWT
Magnet (2019) 1080p - WEB-DL - AVC - UNTOUCHED - AC3 - ESub-BWT
Magnet (2019) 1080p - WEB-DL - AVC - UNTOUCHED - AC3 - ESub-BWT
Magnet (2019) 1080p - WEB-DL - AVC - UNTOUCHED - AC3 - ESub-BWT
Magnet (2019) 1080p - WEB-DL - AVC - UNTOUCHED - AC3 - ESub-BWT
Magnet (2019) 1080p - WEB-DL - AVC - UNTOUCHED - AC3 - ESub-BWT
Magnet (2019) 1080p - WEB-DL - AVC - UNTOUCHED - AC3 - ESub-BWT
Magnet (2019) 1080p - WEB-DL - AVC - UNTOUCHED - AC3 - ESub-BWT

SINGLE DIRECT FAST LINKS

https://www.heroupload.com/d09b3c2ccdfc96f6/Magnet.2019.Telugu.WEB-DL.1080p.AVC.UNTOUCHED.DD+5.1.ESub-BWT.mkv


1GB LINKS


https://www.heroupload.com/e6cd1d6b4f581623/Magnet.2019.Telugu.WEB-DL.1080p.AVC.UNTOUCHED.DD+5.1.ESub-BWT.part01.rar
https://www.heroupload.com/be8eaff9f58d21ab/Magnet.2019.Telugu.WEB-DL.1080p.AVC.UNTOUCHED.DD+5.1.ESub-BWT.part02.rar
https://www.heroupload.com/6d215f784501cbf2/Magnet.2019.Telugu.WEB-DL.1080p.AVC.UNTOUCHED.DD+5.1.ESub-BWT.part03.rar
https://www.heroupload.com/629b30acc807c28d/Magnet.2019.Telugu.WEB-DL.1080p.AVC.UNTOUCHED.DD+5.1.ESub-BWT.part04.rar
https://www.heroupload.com/c0fe74a0d54748a8/Magnet.2019.Telugu.WEB-DL.1080p.AVC.UNTOUCHED.DD+5.1.ESub-BWT.part05.rar
https://www.heroupload.com/90bfff57be4641c6/Magnet.2019.Telugu.WEB-DL.1080p.AVC.UNTOUCHED.DD+5.1.ESub-BWT.part06.rar
https://www.heroupload.com/b4fc40d00b125c64/Magnet.2019.Telugu.WEB-DL.1080p.AVC.UNTOUCHED.DD+5.1.ESub-BWT.part07.rar
https://www.heroupload.com/d0c03342409644e6/Magnet.2019.Telugu.WEB-DL.1080p.AVC.UNTOUCHED.DD+5.1.ESub-BWT.part08.rar
https://www.heroupload.com/5ec6e63a41fcb482/Magnet.2019.Telugu.WEB-DL.1080p.AVC.UNTOUCHED.DD+5.1.ESub-BWT.part09.rar


Buy Premium From My Links & Support Me

Add a comment

Name:* E-Mail:*
Bold Italic Underline Strike | Align left Center Align right | Insert smilies Insert link URLInsert protected URL Select color | Add Hidden Text Insert Quote Convert selected text from selection to Cyrillic (Russian) alphabet Insert spoiler
Enter the code below: *