Rss
Calendar
«    May 2019    »
MonTueWedThuFriSatSun
 12345
6789101112
13141516171819
20212223242526
2728293031 
Friends of the site
» » Natpe Thunai (2019) Tamil - 1080p - WEB-HD - AVC - DD5.1 - ESubs-MTR
  • Author: wroser
  • |
  • Comments: 0
  • |
  • Views: 11
Natpe Thunai (2019) Tamil - 1080p - WEB-HD - AVC - DD5.1 - ESubs-MTR





Format                      : MPEG-4
Format profile              : Base Media / Version 2
Codec ID                    : mp42 (mp42/mp41)
File size                   : 6.86 GiB
Duration                    : 2 h 31 min
Overall bit rate            : 6 504 kb/s
Encoded date                : UTC 2019-05-06 19:23:00
Tagged date                 : UTC 2019-05-06 19:29:09
TIM                         : 00:00:00:00
TSC                         : 24
TSZ                         : 1

Video
ID                          : 1
Format                      : AVC
Format/Info                 : Advanced Video Codec
Format profile              : Main@L4.1
Format settings             : CABAC / 4 Ref Frames
Format settings, CABAC      : Yes
Format settings, Reference  : 4 frames
Codec ID                    : avc1
Codec ID/Info               : Advanced Video Coding
Duration                    : 2 h 31 min
Bit rate                    : 5 990 kb/s
Width                       : 1 920 pixels
Height                      : 1 080 pixels
Display aspect ratio        : 16:9
Frame rate mode             : Constant
Frame rate                  : 24.000 FPS
Color space                 : YUV
Chroma subsampling          : 4:2:0
Bit depth                   : 8 bits
Scan type                   : Progressive
Bits/(Pixel*Frame)          : 0.120
Stream size                 : 6.32 GiB (92%)
Language                    : English
Encoded date                : UTC 2019-05-06 19:23:01
Tagged date                 : UTC 2019-05-06 19:23:01
Color range                 : Limited
Color primaries             : BT.709
Transfer characteristics    : BT.709
Matrix coefficients         : BT.709
Codec configuration box     : avcC

Audio
ID                          : 2
Format                      : AC-3
Format/Info                 : Audio Coding 3
Commercial name             : Dolby Digital
Codec ID                    : ac-3
Duration                    : 2 h 31 min
Source duration             : 2 h 31 min
Bit rate mode               : Constant
Bit rate                    : 512 kb/s
Channel(s)                  : 6 channels
Channel layout              : L R C LFE Ls Rs
Sampling rate               : 48.0 kHz
Frame rate                  : 31.250 FPS (1536 SPF)
Bit depth                   : 16 bits
Compression mode            : Lossy
Stream size                 : 553 MiB (8%)
Source stream size          : 553 MiB (8%)
Language                    : English
Service kind                : Complete Main
Encoded date                : UTC 2019-05-06 19:23:01
Tagged date                 : UTC 2019-05-06 19:23:01




Natpe Thunai (2019) Tamil - 1080p - WEB-HD - AVC - DD5.1 - ESubs-MTR
SINGLE DIRECT FAST LINKS

https://www.heroupload.com/437bcb3c1545ea78/Natpe.Thunai.2019.1080p.HD.AVC.MP4.DD5.1.ESubs.Tamil-MTR.mp4


1GB LINKS


https://www.heroupload.com/0b6dfaf14f025a59/Natpe.Thunai.2019.1080p.HD.AVC.MP4.DD5.1.ESubs.Tamil-MTR.part1.rar
https://www.heroupload.com/424e220bce0de87e/Natpe.Thunai.2019.1080p.HD.AVC.MP4.DD5.1.ESubs.Tamil-MTR.part2.rar
https://www.heroupload.com/2d99f6dc52412469/Natpe.Thunai.2019.1080p.HD.AVC.MP4.DD5.1.ESubs.Tamil-MTR.part3.rar
https://www.heroupload.com/dd2d864a1b3abc83/Natpe.Thunai.2019.1080p.HD.AVC.MP4.DD5.1.ESubs.Tamil-MTR.part4.rar
https://www.heroupload.com/006bc6cd96cd632d/Natpe.Thunai.2019.1080p.HD.AVC.MP4.DD5.1.ESubs.Tamil-MTR.part5.rar
https://www.heroupload.com/e0b7b8bda5a4cf95/Natpe.Thunai.2019.1080p.HD.AVC.MP4.DD5.1.ESubs.Tamil-MTR.part6.rar
https://www.heroupload.com/70a28cdaa003c970/Natpe.Thunai.2019.1080p.HD.AVC.MP4.DD5.1.ESubs.Tamil-MTR.part7.rar




Buy Premium From My Links & Support Me

Add a comment

Name:* E-Mail:*
Bold Italic Underline Strike | Align left Center Align right | Insert smilies Insert link URLInsert protected URL Select color | Add Hidden Text Insert Quote Convert selected text from selection to Cyrillic (Russian) alphabet Insert spoiler
Enter the code below: *