Rss
Calendar
«    May 2019    »
MonTueWedThuFriSatSun
 12345
6789101112
13141516171819
20212223242526
2728293031 
Friends of the site
» » Natpe Thunai (2019) Tamil - Ultra HD 4K - Untouched - AVC - AAC-MTR
  • Author: wroser
  • |
  • Comments: 0
  • |
  • Views: 12
Natpe Thunai (2019) Tamil - Ultra HD 4K - Untouched - AVC - AAC-MTR





Format                      : MPEG-4
Format profile              : Base Media
Codec ID                    : isom (isom)
File size                   : 12.8 GiB
Duration                    : 2 h 31 min
Overall bit rate mode       : Variable
Overall bit rate            : 12.1 Mb/s
Encoded date                : UTC 2019-05-08 07:16:41
Tagged date                 : UTC 2019-05-08 07:16:41

Video
ID                          : 1
Format                      : HEVC
Format/Info                 : High Efficiency Video Coding
Format profile              : Main@L5@Main
Codec ID                    : hev1
Codec ID/Info               : High Efficiency Video Coding
Duration                    : 2 h 31 min
Bit rate                    : 12.0 Mb/s
Width                       : 3 840 pixels
Height                      : 2 160 pixels
Display aspect ratio        : 16:9
Frame rate mode             : Constant
Frame rate                  : 23.976 (24000/1001) FPS
Color space                 : YUV
Chroma subsampling          : 4:2:0 (Type 0)
Bit depth                   : 8 bits
Bits/(Pixel*Frame)          : 0.060
Stream size                 : 12.7 GiB (99%)
Encoded date                : UTC 2019-05-08 07:16:41
Tagged date                 : UTC 2019-05-08 07:16:41
Color range                 : Limited
Color primaries             : BT.709
Transfer characteristics    : BT.709
Matrix coefficients         : BT.709
Codec configuration box     : hvcC

Audio
ID                          : 2
Format                      : AAC LC
Format/Info                 : Advanced Audio Codec Low Complexity
Codec ID                    : mp4a-40-2
Duration                    : 2 h 31 min
Bit rate mode               : Variable
Bit rate                    : 128 kb/s
Maximum bit rate            : 133 kb/s
Channel(s)                  : 2 channels
Channel layout              : L R
Sampling rate               : 48.0 kHz
Frame rate                  : 46.875 FPS (1024 SPF)
Compression mode            : Lossy
Stream size                 : 135 MiB (1%)
Language                    : English
Encoded date                : UTC 2019-05-08 07:16:41
Tagged date                 : UTC 2019-05-08 07:16:41




Natpe Thunai (2019) Tamil - Ultra HD 4K - Untouched - AVC - AAC-MTR
Natpe Thunai (2019) Tamil - Ultra HD 4K - Untouched - AVC - AAC-MTR
Natpe Thunai (2019) Tamil - Ultra HD 4K - Untouched - AVC - AAC-MTR
Natpe Thunai (2019) Tamil - Ultra HD 4K - Untouched - AVC - AAC-MTR
Natpe Thunai (2019) Tamil - Ultra HD 4K - Untouched - AVC - AAC-MTR
Natpe Thunai (2019) Tamil - Ultra HD 4K - Untouched - AVC - AAC-MTR
Natpe Thunai (2019) Tamil - Ultra HD 4K - Untouched - AVC - AAC-MTR
Natpe Thunai (2019) Tamil - Ultra HD 4K - Untouched - AVC - AAC-MTR



SINGLE DIRECT FAST LINKS

https://www.heroupload.com/611bb055be5f2899/Natpe.Thunai.2019.4K.Untouched.UHD.MP4.ESubs.Tamil-MTR.mp4


1GB LINKS



https://www.heroupload.com/7d0aaaf367f7e7f3/Natpe.Thunai.2019.4K.Untouched.UHD.MP4.ESubs.Tamil-MTR.part01.rar
https://www.heroupload.com/6f2ed91f4f6d2292/Natpe.Thunai.2019.4K.Untouched.UHD.MP4.ESubs.Tamil-MTR.part02.rar
https://www.heroupload.com/7f834126629117e8/Natpe.Thunai.2019.4K.Untouched.UHD.MP4.ESubs.Tamil-MTR.part03.rar
https://www.heroupload.com/8307a81cf86492b9/Natpe.Thunai.2019.4K.Untouched.UHD.MP4.ESubs.Tamil-MTR.part04.rar
https://www.heroupload.com/ed567abaeb16a7c0/Natpe.Thunai.2019.4K.Untouched.UHD.MP4.ESubs.Tamil-MTR.part05.rar
https://www.heroupload.com/70aa8ab8719ed177/Natpe.Thunai.2019.4K.Untouched.UHD.MP4.ESubs.Tamil-MTR.part06.rar
https://www.heroupload.com/f60f77e8bf156c23/Natpe.Thunai.2019.4K.Untouched.UHD.MP4.ESubs.Tamil-MTR.part07.rar
https://www.heroupload.com/5ac09ac907980814/Natpe.Thunai.2019.4K.Untouched.UHD.MP4.ESubs.Tamil-MTR.part08.rar
https://www.heroupload.com/469507f913f1571c/Natpe.Thunai.2019.4K.Untouched.UHD.MP4.ESubs.Tamil-MTR.part09.rar
https://www.heroupload.com/24f59154db978998/Natpe.Thunai.2019.4K.Untouched.UHD.MP4.ESubs.Tamil-MTR.part10.rar
https://www.heroupload.com/52e353de5c55cd0b/Natpe.Thunai.2019.4K.Untouched.UHD.MP4.ESubs.Tamil-MTR.part11.rar
https://www.heroupload.com/cd834af3dba9faec/Natpe.Thunai.2019.4K.Untouched.UHD.MP4.ESubs.Tamil-MTR.part12.rar
https://www.heroupload.com/7a7957e8908e3afe/Natpe.Thunai.2019.4K.Untouched.UHD.MP4.ESubs.Tamil-MTR.part13.rar
https://www.heroupload.com/274f7d7381f23219/Natpe.Thunai.2019.4K.Untouched.UHD.MP4.ESubs.Tamil-MTR.srt




Buy Premium From My Links & Support Me

Add a comment

Name:* E-Mail:*
Bold Italic Underline Strike | Align left Center Align right | Insert smilies Insert link URLInsert protected URL Select color | Add Hidden Text Insert Quote Convert selected text from selection to Cyrillic (Russian) alphabet Insert spoiler
Enter the code below: *