Rss
Calendar
«    May 2019    »
MonTueWedThuFriSatSun
 12345
6789101112
13141516171819
20212223242526
2728293031 
Friends of the site
» » Pantham (2018) Telugu - 720p - HDRip - x264 - AAC-BWT
  • Author: wroser
  • |
  • Comments: 0
  • |
  • Views: 10
Pantham (2018) Telugu - 720p - HDRip - x264 - AAC-BWT




Format                      : Matroska
Format version              : Version 4
File size                   : 1.46 GiB
Duration                    : 2 h 23 min
Overall bit rate            : 1 462 kb/s
Encoded date                : UTC 2019-05-10 09:11:57
Writing application         : mkvmerge v33.1.0 ('Primrose') 32-bit
Writing library             : libebml v1.3.7 + libmatroska v1.5.0

Video
ID                          : 1
Format                      : AVC
Format/Info                 : Advanced Video Codec
Format profile              : High@L3.1
Format settings             : CABAC / 4 Ref Frames
Format settings, CABAC      : Yes
Format settings, Reference  : 4 frames
Codec ID                    : V_MPEG4/ISO/AVC
Duration                    : 2 h 23 min
Bit rate                    : 1 351 kb/s
Width                       : 1 280 pixels
Height                      : 544 pixels
Display aspect ratio        : 2.35:1
Frame rate mode             : Constant
Frame rate                  : 25.000 FPS
Color space                 : YUV
Chroma subsampling          : 4:2:0
Bit depth                   : 8 bits
Scan type                   : Progressive
Bits/(Pixel*Frame)          : 0.078
Stream size                 : 1.33 GiB (91%)
Writing library             : x264 core 155 r2901 7d0ff22
Encoding settings           : cabac=1 / ref=1 / deblock=1:0:0 / analyse=0x3:0x113 / me=hex / subme=2 / psy=1 / psy_rd=1.00:0.00 / mixed_ref=0 / me_range=16 / chroma_me=1 / trellis=0 / 8x8dct=1 / cqm=0 / deadzone=21,11 / fast_pskip=1 / chroma_qp_offset=0 / threads=12 / lookahead_threads=4 / sliced_threads=0 / nr=0 / decimate=1 / interlaced=0 / bluray_compat=0 / constrained_intra=0 / bframes=3 / b_pyramid=2 / b_adapt=1 / b_bias=0 / direct=1 / weightb=1 / open_gop=0 / weightp=1 / keyint=250 / keyint_min=25 / scenecut=40 / intra_refresh=0 / rc_lookahead=10 / rc=abr / mbtree=1 / bitrate=1351 / ratetol=1.0 / qcomp=0.60 / qpmin=0 / qpmax=69 / qpstep=4 / ip_ratio=1.40 / aq=1:1.00
Language                    : Telugu
Default                     : Yes
Forced                      : No
Color range                 : Limited
Color primaries             : BT.709
Transfer characteristics    : BT.709
Matrix coefficients         : BT.709

Audio
ID                          : 2
Format                      : AAC LC
Format/Info                 : Advanced Audio Codec Low Complexity
Codec ID                    : A_AAC-2
Duration                    : 2 h 23 min
Bit rate                    : 128 kb/s
Channel(s)                  : 2 channels
Channel layout              : L R
Sampling rate               : 44.1 kHz
Frame rate                  : 43.066 FPS (1024 SPF)
Compression mode            : Lossy
Stream size                 : 131 MiB (9%)
Language                    : Telugu
Default                     : Yes
Forced                      : No



Pantham (2018) Telugu - 720p - HDRip - x264 - AAC-BWT
Pantham (2018) Telugu - 720p - HDRip - x264 - AAC-BWT
Pantham (2018) Telugu - 720p - HDRip - x264 - AAC-BWT
Pantham (2018) Telugu - 720p - HDRip - x264 - AAC-BWT
Pantham (2018) Telugu - 720p - HDRip - x264 - AAC-BWT
Pantham (2018) Telugu - 720p - HDRip - x264 - AAC-BWT
Pantham (2018) Telugu - 720p - HDRip - x264 - AAC-BWT
Pantham (2018) Telugu - 720p - HDRip - x264 - AAC-BWT
Pantham (2018) Telugu - 720p - HDRip - x264 - AAC-BWT
Pantham (2018) Telugu - 720p - HDRip - x264 - AAC-BWT
Pantham (2018) Telugu - 720p - HDRip - x264 - AAC-BWT
Pantham (2018) Telugu - 720p - HDRip - x264 - AAC-BWT

SINGLE DIRECT FAST LINKS


https://www.heroupload.com/d65857321d4aba6d/Pantham.2018.Telugu.HDRip.720p.x264.AAC-BWT.mkv




Buy Premium From My Links & Support Me

Add a comment

Name:* E-Mail:*
Bold Italic Underline Strike | Align left Center Align right | Insert smilies Insert link URLInsert protected URL Select color | Add Hidden Text Insert Quote Convert selected text from selection to Cyrillic (Russian) alphabet Insert spoiler
Enter the code below: *