Rss
Calendar
«    May 2019    »
MonTueWedThuFriSatSun
 12345
6789101112
13141516171819
20212223242526
2728293031 
Friends of the site
» » Photograph (2019) 1080p - WEB-HD - AVC - AAC 5.1 - ESubs-BollywoodA2z
  • Author: wroser
  • |
  • Comments: 0
  • |
  • Views: 6
Photograph (2019) 1080p - WEB-HD - AVC - AAC 5.1 - ESubs-BollywoodA2z





Format                      : Matroska
Format version              : Version 4
File size                   : 2.17 GiB
Duration                    : 1 h 48 min
Overall bit rate            : 2 850 kb/s
Encoded date                : UTC 2019-05-11 12:34:27
Writing application         : mkvmerge v33.1.0 ('Primrose') 32-bit
Writing library             : libebml v1.3.7 + libmatroska v1.5.0

Video
ID                          : 1
Format                      : AVC
Format/Info                 : Advanced Video Codec
Format profile              : High@L4
Format settings             : CABAC / 4 Ref Frames
Format settings, CABAC      : Yes
Format settings, Reference  : 4 frames
Codec ID                    : V_MPEG4/ISO/AVC
Duration                    : 1 h 48 min
Bit rate                    : 2 500 kb/s
Width                       : 1 920 pixels
Height                      : 816 pixels
Display aspect ratio        : 2.35:1
Frame rate mode             : Constant
Frame rate                  : 23.976 (24000/1001) FPS
Color space                 : YUV
Chroma subsampling          : 4:2:0
Bit depth                   : 8 bits
Scan type                   : Progressive
Bits/(Pixel*Frame)          : 0.067
Stream size                 : 1.87 GiB (87%)
Writing library             : x264 core 155 r2901 7d0ff22
Encoding settings           : cabac=1 / ref=1 / deblock=1:0:0 / analyse=0x3:0x113 / me=hex / subme=2 / psy=1 / psy_rd=1.00:0.00 / mixed_ref=0 / me_range=16 / chroma_me=1 / trellis=0 / 8x8dct=1 / cqm=0 / deadzone=21,11 / fast_pskip=1 / chroma_qp_offset=0 / threads=12 / lookahead_threads=4 / sliced_threads=0 / nr=0 / decimate=1 / interlaced=0 / bluray_compat=0 / constrained_intra=0 / bframes=3 / b_pyramid=2 / b_adapt=1 / b_bias=0 / direct=1 / weightb=1 / open_gop=0 / weightp=1 / keyint=240 / keyint_min=24 / scenecut=40 / intra_refresh=0 / rc_lookahead=10 / rc=abr / mbtree=1 / bitrate=2500 / ratetol=1.0 / qcomp=0.60 / qpmin=0 / qpmax=69 / qpstep=4 / vbv_maxrate=25000 / vbv_bufsize=31250 / nal_hrd=none / filler=0 / ip_ratio=1.40 / aq=1:1.00
Default                     : Yes
Forced                      : No
Color range                 : Limited
Color primaries             : BT.709
Transfer characteristics    : BT.709
Matrix coefficients         : BT.709

Audio
ID                          : 2
Format                      : AAC LC
Format/Info                 : Advanced Audio Codec Low Complexity
Codec ID                    : A_AAC-2
Duration                    : 1 h 48 min
Bit rate                    : 384 kb/s
Channel(s)                  : 6 channels
Channel layout              : C L R Ls Rs LFE
Sampling rate               : 48.0 kHz
Frame rate                  : 46.875 FPS (1024 SPF)
Compression mode            : Lossy
Stream size                 : 297 MiB (13%)
Language                    : English
Default                     : Yes
Forced                      : No

Text
ID                          : 3
Format                      : UTF-8
Codec ID                    : S_TEXT/UTF8
Codec ID/Info               : UTF-8 Plain Text
Duration                    : 1 h 47 min
Bit rate                    : 40 b/s
Count of elements           : 1330
Stream size                 : 32.0 KiB (0%)
Language                    : English
Default                     : Yes
Forced                      : No




Photograph (2019) 1080p - WEB-HD - AVC - AAC 5.1 - ESubs-BollywoodA2z
Photograph (2019) 1080p - WEB-HD - AVC - AAC 5.1 - ESubs-BollywoodA2z
Photograph (2019) 1080p - WEB-HD - AVC - AAC 5.1 - ESubs-BollywoodA2z
Photograph (2019) 1080p - WEB-HD - AVC - AAC 5.1 - ESubs-BollywoodA2z
Photograph (2019) 1080p - WEB-HD - AVC - AAC 5.1 - ESubs-BollywoodA2z
Photograph (2019) 1080p - WEB-HD - AVC - AAC 5.1 - ESubs-BollywoodA2z

SINGLE DIRECT FAST LINKS


https://www.heroupload.com/2267fa3c674ba519/Photograph.2019.Hindi.WEB-HD.1080p.AVC.DD5.1.ESub-BollywoodA2Z.mkv

Buy Premium From My Links & Support Me

Add a comment

Name:* E-Mail:*
Bold Italic Underline Strike | Align left Center Align right | Insert smilies Insert link URLInsert protected URL Select color | Add Hidden Text Insert Quote Convert selected text from selection to Cyrillic (Russian) alphabet Insert spoiler
Enter the code below: *