Rss
Calendar
«    May 2019    »
MonTueWedThuFriSatSun
 12345
6789101112
13141516171819
20212223242526
2728293031 
Friends of the site
» » Dhuruvangal Pathinaaru (2016) 720p HDRip x264 [Multi Audio][Hindi+Malayalam+Tamil]
  • Author: wroser
  • |
  • Comments: 0
  • |
  • Views: 7
Dhuruvangal Pathinaaru (2016) 720p HDRip x264 [Multi Audio][Hindi+Malayalam+Tamil]






Media
Format : Matroska
Format version : Version 4
File size : 1.57 GiB
Duration : 1 h 44 min
Overall bit rate mode : Variable
Overall bit rate : 2 166 kb/s

Video
ID : 1
Format : AVC
Format/Info : Advanced Video Codec
Format profile : High@L4.1
Format settings : CABAC / 3 Ref Frames
Format settings, CABAC : Yes
Format settings, RefFrames : 3 frames
Codec ID : V_MPEG4/ISO/AVC
Duration : 1 h 44 min
Bit rate mode : Variable
Bit rate : 1 783 kb/s
Maximum bit rate : 40.0 Mb/s
Width : 1 280 pixels
Height : 536 pixels
Display aspect ratio : 2.40:1
Frame rate mode : Constant
Frame rate : 24.000 FPS
Color space : YUV
Chroma subsampling : 4:2:0
Bit depth : 8 bits
Scan type : Progressive
Bits/(Pixel*Frame) : 0.108
Stream size : 1.30 GiB (82%)
Writing library : x264 core 148 r2638 7599210


Audio #1
ID : 2
Format : AC-3
Format/Info : Audio Coding 3
Commercial name : Dolby Digital
Codec ID : A_AC3
Duration : 1 h 44 min
Bit rate mode : Constant
Bit rate : 192 kb/s
Channel(s) : 2 channels
Channel layout : L R
Sampling rate : 48.0 kHz
Frame rate : 31.250 FPS (1536 SPF)
Bit depth : 16 bits
Compression mode : Lossy
Stream size : 143 MiB (9%)
Language : Hindi
Service kind : Complete Main
Default : Yes
Forced : No

Audio #2
ID : 3
Format : MPEG Audio
Format version : Version 1
Format profile : Layer 3
Format settings : Joint stereo / MS Stereo
Codec ID : A_MPEG/L3
Codec ID/Hint : MP3
Duration : 1 h 43 min
Bit rate mode : Constant
Bit rate : 96.0 kb/s
Channel(s) : 2 channels
Sampling rate : 44.1 kHz
Frame rate : 38.281 FPS (1152 SPF)
Compression mode : Lossy
Stream size : 70.9 MiB (4%)
Language : Malayalam
Default : No
Forced : No

Audio #3
ID : 4
Format : AAC LC
Format/Info : Advanced Audio Codec Low Complexity
Codec ID : A_AAC-2
Duration : 1 h 44 min
Bit rate : 93.4 kb/s
Channel(s) : 2 channels
Channel layout : L R
Sampling rate : 48.0 kHz
Frame rate : 46.875 FPS (1024 SPF)
Compression mode : Lossy
Stream size : 69.5 MiB (4%)
Language : Tamil
Default : No
Forced : No

Text
ID : 5
Format : UTF-8
Codec ID : S_TEXT/UTF8
Codec ID/Info : UTF-8 Plain Text
Duration : 1 h 38 min
Bit rate : 61 b/s
Count of elements : 1255
Stream size : 44.3 KiB (0%)
Language : English
Default : Yes
Forced : No 



Dhuruvangal Pathinaaru (2016) 720p HDRip x264 [Multi Audio][Hindi+Malayalam+Tamil]
Dhuruvangal Pathinaaru (2016) 720p HDRip x264 [Multi Audio][Hindi+Malayalam+Tamil]
Dhuruvangal Pathinaaru (2016) 720p HDRip x264 [Multi Audio][Hindi+Malayalam+Tamil]
Dhuruvangal Pathinaaru (2016) 720p HDRip x264 [Multi Audio][Hindi+Malayalam+Tamil]
Dhuruvangal Pathinaaru (2016) 720p HDRip x264 [Multi Audio][Hindi+Malayalam+Tamil]
Dhuruvangal Pathinaaru (2016) 720p HDRip x264 [Multi Audio][Hindi+Malayalam+Tamil]
Dhuruvangal Pathinaaru (2016) 720p HDRip x264 [Multi Audio][Hindi+Malayalam+Tamil]
Dhuruvangal Pathinaaru (2016) 720p HDRip x264 [Multi Audio][Hindi+Malayalam+Tamil]

SINGLE DIRECT FAST LINKS


https://www.heroupload.com/ed7c4cd3d6dd00a3/Dhuruvangal.Pathinaaru.2016.720p.UNCUT.HDRip.x264.ESubs.Hindi+Malayalam+Tamil.mkv
https://www.heroupload.com/fc5af98fb985e96d/Dhuruvangal.Pathinaaru.2016.720p.UNCUT.HDRip.x264.ESubs.Hindi+Malayalam+Tamil.srt



Buy Premium From My Links & Support Me

Add a comment

Name:* E-Mail:*
Bold Italic Underline Strike | Align left Center Align right | Insert smilies Insert link URLInsert protected URL Select color | Add Hidden Text Insert Quote Convert selected text from selection to Cyrillic (Russian) alphabet Insert spoiler
Enter the code below: *