Rss
Calendar
«    May 2019    »
MonTueWedThuFriSatSun
 12345
6789101112
13141516171819
20212223242526
2728293031 
Friends of the site
» » Arjuna (2015) 720p UNCUT HDRip x264 [Dual Audio][Hindi+Kannada] BHD
  • Author: wroser
  • |
  • Comments: 0
  • |
  • Views: 7
Arjuna (2015) 720p UNCUT HDRip x264 [Dual Audio][Hindi+Kannada] BHD





Video
ID : 1
Format : AVC
Format/Info : Advanced Video Codec
Format profile : High@L3.1
Format settings : CABAC / 5 Ref Frames
Format settings, CABAC : Yes
Format settings, RefFrames : 5 frames
Codec ID : V_MPEG4/ISO/AVC
Duration : 1 h 39 min
Width : 1 280 pixels
Height : 544 pixels
Display aspect ratio : 2.35:1
Frame rate mode : Constant
Frame rate : 29.970 (30000/1001) FPS
Color space : YUV
Chroma subsampling : 4:2:0
Bit depth : 8 bits
Scan type : Progressive
Bits/(Pixel*Frame) : 0.055
Stream size : 810 MiB (77%)
Writing library : x264 core
Default : Yes
Forced : No

Audio #1
ID : 2
Format : AC-3
Format/Info : Audio Coding 3
Codec ID : A_AC3
Duration : 1 h 39 min
Bit rate mode : Constant
Bit rate : 160 kb/s
Channel(s) : 2 channels
Channel positions : Front: L R
Sampling rate : 48.0 kHz
Frame rate : 31.250 FPS (1536 SPF)
Bit depth : 16 bits
Compression mode : Lossy
Stream size : 114 MiB (11%)
Language : Hindi
Default : Yes
Forced : No

Audio #2
ID : 3
Format : AAC
Format/Info : Advanced Audio Codec
Format profile : LC
Codec ID : A_AAC-2
Duration : 1 h 39 min
Bit rate : 187 kb/s
Channel(s) : 2 channels
Channel positions : Front: L R
Sampling rate : 48.0 kHz
Frame rate : 46.875 FPS (1024 SPF)
Compression mode : Lossy
Stream size : 133 MiB (13%)
Language : Kannada
Default : No
Forced : No



Arjuna (2015) 720p UNCUT HDRip x264 [Dual Audio][Hindi+Kannada] BHD
Arjuna (2015) 720p UNCUT HDRip x264 [Dual Audio][Hindi+Kannada] BHD
Arjuna (2015) 720p UNCUT HDRip x264 [Dual Audio][Hindi+Kannada] BHD
Arjuna (2015) 720p UNCUT HDRip x264 [Dual Audio][Hindi+Kannada] BHD
Arjuna (2015) 720p UNCUT HDRip x264 [Dual Audio][Hindi+Kannada] BHD


SINGLE DIRECT FAST LINKS



https://www.heroupload.com/d896bff087c53cb7/Arjuna.2015.720p.UNCUT.HDRip.x264.Hindi+Kannada-BHD.mkv



Buy Premium From My Links & Support Me

Add a comment

Name:* E-Mail:*
Bold Italic Underline Strike | Align left Center Align right | Insert smilies Insert link URLInsert protected URL Select color | Add Hidden Text Insert Quote Convert selected text from selection to Cyrillic (Russian) alphabet Insert spoiler
Enter the code below: *