Rss
Calendar
«    May 2019    »
MonTueWedThuFriSatSun
 12345
6789101112
13141516171819
20212223242526
2728293031 
Friends of the site
» » Sanjeevani (2018) 720p UNCUT HDRip x264 [Dual Audio][Hindi+Telugu] BHD
  • Author: wroser
  • |
  • Comments: 0
  • |
  • Views: 8
Sanjeevani (2018) 720p UNCUT HDRip x264 [Dual Audio][Hindi+Telugu] BHD





Format                      : Matroska
Format version              : Version 4
File size                   : 1.19 GiB
Duration                    : 1 h 43 min
Overall bit rate            : 1 651 kb/s
Encoded date                : UTC 2019-05-14 13:08:03
Writing application         : mkvmerge v33.1.0 ('Primrose') 32-bit
Writing library             : libebml v1.3.7 + libmatroska v1.5.0

Video
ID                          : 1
Format                      : AVC
Format/Info                 : Advanced Video Codec
Format profile              : High@L3.1
Format settings             : CABAC / 5 Ref Frames
Format settings, CABAC      : Yes
Format settings, Reference  : 5 frames
Codec ID                    : V_MPEG4/ISO/AVC
Duration                    : 1 h 43 min
Bit rate                    : 1 350 kb/s
Width                       : 1 280 pixels
Height                      : 536 pixels
Display aspect ratio        : 2.40:1
Frame rate mode             : Constant
Frame rate                  : 24.000 FPS
Color space                 : YUV
Chroma subsampling          : 4:2:0
Bit depth                   : 8 bits
Scan type                   : Progressive
Bits/(Pixel*Frame)          : 0.082
Stream size                 : 985 MiB (81%)
Writing library             : x264 core 148 r2708 86b7198
Encoding settings           : cabac=1 / ref=5 / deblock=1:0:0 / analyse=0x3:0x113 / me=hex / subme=7 / psy=1 / psy_rd=1.00:0.00 / mixed_ref=1 / me_range=16 / chroma_me=1 / trellis=1 / 8x8dct=1 / cqm=0 / deadzone=21,11 / fast_pskip=1 / chroma_qp_offset=-2 / threads=17 / lookahead_threads=2 / sliced_threads=0 / nr=0 / decimate=1 / interlaced=0 / bluray_compat=0 / constrained_intra=0 / bframes=5 / b_pyramid=2 / b_adapt=1 / b_bias=0 / direct=1 / weightb=1 / open_gop=0 / weightp=2 / keyint=240 / keyint_min=24 / scenecut=40 / intra_refresh=0 / rc_lookahead=40 / rc=abr / mbtree=1 / bitrate=1350 / ratetol=1.0 / qcomp=0.60 / qpmin=0 / qpmax=69 / qpstep=4 / vbv_maxrate=17500 / vbv_bufsize=17500 / nal_hrd=none / filler=0 / ip_ratio=1.40 / aq=1:1.00
Default                     : Yes
Forced                      : No
Color range                 : Limited
Color primaries             : BT.709
Transfer characteristics    : BT.709
Matrix coefficients         : BT.709

Audio #1
ID                          : 2
Format                      : MPEG Audio
Format version              : Version 1
Format profile              : Layer 3
Codec ID                    : A_MPEG/L3
Codec ID/Hint               : MP3
Duration                    : 1 h 43 min
Bit rate mode               : Constant
Bit rate                    : 192 kb/s
Channel(s)                  : 2 channels
Sampling rate               : 44.1 kHz
Frame rate                  : 38.281 FPS (1152 SPF)
Compression mode            : Lossy
Delay relative to video     : -23 ms
Stream size                 : 142 MiB (12%)
Writing library             : LAME3.99.5
Language                    : Hindi
Default                     : Yes
Forced                      : No

Audio #2
ID                          : 3
Format                      : AAC LC
Format/Info                 : Advanced Audio Codec Low Complexity
Codec ID                    : A_AAC-2
Duration                    : 1 h 43 min
Bit rate                    : 126 kb/s
Channel(s)                  : 2 channels
Channel layout              : L R
Sampling rate               : 44.1 kHz
Frame rate                  : 43.066 FPS (1024 SPF)
Compression mode            : Lossy
Delay relative to video     : -23 ms
Stream size                 : 92.9 MiB (8%)
Language                    : Telugu
Default                     : No
Forced                      : No




Sanjeevani (2018) 720p UNCUT HDRip x264 [Dual Audio][Hindi+Telugu] BHD
Sanjeevani (2018) 720p UNCUT HDRip x264 [Dual Audio][Hindi+Telugu] BHD
Sanjeevani (2018) 720p UNCUT HDRip x264 [Dual Audio][Hindi+Telugu] BHD
Sanjeevani (2018) 720p UNCUT HDRip x264 [Dual Audio][Hindi+Telugu] BHD
Sanjeevani (2018) 720p UNCUT HDRip x264 [Dual Audio][Hindi+Telugu] BHD
Sanjeevani (2018) 720p UNCUT HDRip x264 [Dual Audio][Hindi+Telugu] BHD

SINGLE DIRECT FAST LINKS


https://www.heroupload.com/e890dbaee00c19bb/Sanjeevani.2018.720p.UNCUT.HDRip.x264.Hindi+Telugu-BHD.mkv



Buy Premium From My Links & Support Me

Add a comment

Name:* E-Mail:*
Bold Italic Underline Strike | Align left Center Align right | Insert smilies Insert link URLInsert protected URL Select color | Add Hidden Text Insert Quote Convert selected text from selection to Cyrillic (Russian) alphabet Insert spoiler
Enter the code below: *