Rss
Calendar
«    May 2019    »
MonTueWedThuFriSatSun
 12345
6789101112
13141516171819
20212223242526
2728293031 
Friends of the site
» » Arjun Reddy (Dwaraka) (2019) Tamil (Original Version) 1080p - WEB-HD - AVC - AAC-BWT
  • Author: wroser
  • |
  • Comments: 0
  • |
  • Views: 6
Arjun Reddy (Dwaraka) (2019) Tamil (Original Version) 1080p - WEB-HD - AVC - AAC-BWT




Format                      : MPEG-4
Codec ID                    : M4V  (isom/M4A /M4V /mp42)
File size                   : 1.55 GiB
Duration                    : 1 h 59 min
Overall bit rate mode       : Variable
Overall bit rate            : 1 870 kb/s
ContentType                 : Movie
Encoded date                : UTC 2019-05-12 19:48:37
Tagged date                 : UTC 2019-05-12 19:49:07
Writing application         : MkvToMp4 [www.mkvtomp4.ru] version: 0.224 (x64)

Video
ID                          : 1
Format                      : AVC
Format/Info                 : Advanced Video Codec
Format profile              : High@L4
Format settings             : CABAC / 4 Ref Frames
Format settings, CABAC      : Yes
Format settings, Reference  : 4 frames
Codec ID                    : avc1
Codec ID/Info               : Advanced Video Coding
Duration                    : 1 h 59 min
Bit rate                    : 1 800 kb/s
Maximum bit rate            : 4 280 kb/s
Width                       : 1 920 pixels
Height                      : 1 080 pixels
Display aspect ratio        : 16:9
Frame rate mode             : Constant
Frame rate                  : 25.000 FPS
Color space                 : YUV
Chroma subsampling          : 4:2:0
Bit depth                   : 8 bits
Scan type                   : Progressive
Bits/(Pixel*Frame)          : 0.035
Stream size                 : 1.49 GiB (96%)
Writing library             : x264 core 155 r2917 0a84d98
Encoding settings           : cabac=1 / ref=4 / deblock=1:-1:-1 / analyse=0x3:0x113 / me=hex / subme=8 / psy=1 / psy_rd=1.00:0.15 / mixed_ref=1 / me_range=16 / chroma_me=1 / trellis=2 / 8x8dct=1 / cqm=0 / deadzone=21,11 / fast_pskip=1 / chroma_qp_offset=-3 / threads=24 / lookahead_threads=4 / sliced_threads=0 / nr=0 / decimate=1 / interlaced=0 / bluray_compat=0 / constrained_intra=0 / bframes=3 / b_pyramid=2 / b_adapt=2 / b_bias=0 / direct=3 / weightb=1 / open_gop=0 / weightp=2 / keyint=50 / keyint_min=26 / scenecut=0 / intra_refresh=0 / rc_lookahead=50 / rc=2pass / mbtree=1 / bitrate=1800 / ratetol=1.0 / qcomp=0.60 / qpmin=0 / qpmax=69 / qpstep=4 / cplxblur=20.0 / qblur=0.5 / vbv_maxrate=2520 / vbv_bufsize=3240 / nal_hrd=none / filler=0 / ip_ratio=1.40 / aq=1:1.00
Language                    : English
Tagged date                 : UTC 2019-05-12 19:48:48
Color range                 : Limited
Color primaries             : BT.709
Transfer characteristics    : BT.709
Codec configuration box     : avcC

Audio
ID                          : 2
Format                      : AAC LC
Format/Info                 : Advanced Audio Codec Low Complexity
Codec ID                    : mp4a-40-2
Duration                    : 1 h 59 min
Bit rate mode               : Variable
Bit rate                    : 64.3 kb/s
Maximum bit rate            : 91.4 kb/s
Channel(s)                  : 2 channels
Channel layout              : L R
Sampling rate               : 48.0 kHz
Frame rate                  : 46.875 FPS (1024 SPF)
Compression mode            : Lossy
Stream size                 : 54.8 MiB (3%)
Language                    : English
Default                     : Yes
Alternate group             : 1
Encoded date                : UTC 2019-05-12 19:48:44
Tagged date                 : UTC 2019-05-12 19:48:48



Arjun Reddy (Dwaraka) (2019) Tamil (Original Version) 1080p - WEB-HD - AVC - AAC-BWTArjun Reddy (Dwaraka) (2019) Tamil (Original Version) 1080p - WEB-HD - AVC - AAC-BWTArjun Reddy (Dwaraka) (2019) Tamil (Original Version) 1080p - WEB-HD - AVC - AAC-BWTArjun Reddy (Dwaraka) (2019) Tamil (Original Version) 1080p - WEB-HD - AVC - AAC-BWT
SINGLE DIRECT FAST LINKS


https://www.heroupload.com/0cad31cf4e1e58f7/Arjun.Reddy.Dwaraka.2019.Tamil.Org.Vers.WEB-HD.1080p.AVC.Original.Audio-BWT.mp4





Buy Premium From My Links & Support Me

Add a comment

Name:* E-Mail:*
Bold Italic Underline Strike | Align left Center Align right | Insert smilies Insert link URLInsert protected URL Select color | Add Hidden Text Insert Quote Convert selected text from selection to Cyrillic (Russian) alphabet Insert spoiler
Enter the code below: *