Rss
Calendar
«    June 2019    »
MonTueWedThuFriSatSun
 12
3456789
10111213141516
17181920212223
24252627282930
Friends of the site
» » Lucifer (2019) Telugu (Original Version) UNTOUCHED - 1080p - WEB-DL - AVC - DD5.1-BWT
  • Author: wroser
  • |
  • Comments: 0
  • |
  • Views: 22
Lucifer (2019) Telugu (Original Version) UNTOUCHED - 1080p - WEB-DL - AVC - DD5.1-BWT




Format                      : Matroska
Format version              : Version 4
File size                   : 6.95 GiB
Duration                    : 2 h 52 min
Overall bit rate            : 5 772 kb/s
Encoded date                : UTC 2019-05-15 18:57:17
Writing application         : mkvmerge v33.1.0 ('Primrose') 64-bit
Writing library             : libebml v1.3.7 + libmatroska v1.5.0

Video
ID                          : 1
Format                      : AVC
Format/Info                 : Advanced Video Codec
Format profile              : High@L4
Format settings             : CABAC / 4 Ref Frames
Format settings, CABAC      : Yes
Format settings, Reference  : 4 frames
Format settings, GOP        : M=4, N=48
Codec ID                    : V_MPEG4/ISO/AVC
Duration                    : 2 h 52 min
Bit rate mode               : Constant
Bit rate                    : 5 130 kb/s
Nominal bit rate            : 10 000 kb/s
Width                       : 1 920 pixels
Height                      : 1 080 pixels
Display aspect ratio        : 16:9
Frame rate mode             : Constant
Frame rate                  : 24.000 FPS
Color space                 : YUV
Chroma subsampling          : 4:2:0
Bit depth                   : 8 bits
Scan type                   : Progressive
Bits/(Pixel*Frame)          : 0.103
Stream size                 : 6.18 GiB (89%)
Language                    : English
Default                     : Yes
Forced                      : No
Color range                 : Limited
Color primaries             : BT.709
Transfer characteristics    : BT.709
Matrix coefficients         : BT.709

Audio
ID                          : 2
Format                      : E-AC-3
Format/Info                 : Enhanced AC-3
Commercial name             : Dolby Digital Plus
Codec ID                    : A_EAC3
Duration                    : 2 h 52 min
Bit rate mode               : Constant
Bit rate                    : 640 kb/s
Channel(s)                  : 6 channels
Channel layout              : L R C LFE Ls Rs
Sampling rate               : 48.0 kHz
Frame rate                  : 31.250 FPS (1536 SPF)
Compression mode            : Lossy
Stream size                 : 789 MiB (11%)
Title                       : Telugu
Language                    : Telugu
Service kind                : Complete Main
Default                     : Yes
Forced                      : No

Text
ID                          : 3
Format                      : UTF-8
Codec ID                    : S_TEXT/UTF8
Codec ID/Info               : UTF-8 Plain Text
Duration                    : 2 h 45 min
Bit rate                    : 60 b/s
Count of elements           : 2218
Stream size                 : 73.2 KiB (0%)
Title                       : English (SDH)
Language                    : English
Default                     : No
Forced                      : No




Lucifer (2019) Telugu (Original Version) UNTOUCHED - 1080p - WEB-DL - AVC - DD5.1-BWT
Lucifer (2019) Telugu (Original Version) UNTOUCHED - 1080p - WEB-DL - AVC - DD5.1-BWT
Lucifer (2019) Telugu (Original Version) UNTOUCHED - 1080p - WEB-DL - AVC - DD5.1-BWT
Lucifer (2019) Telugu (Original Version) UNTOUCHED - 1080p - WEB-DL - AVC - DD5.1-BWT
Lucifer (2019) Telugu (Original Version) UNTOUCHED - 1080p - WEB-DL - AVC - DD5.1-BWT
Lucifer (2019) Telugu (Original Version) UNTOUCHED - 1080p - WEB-DL - AVC - DD5.1-BWT

SINGLE DIRECT FAST LINKS

https://www.heroupload.com/7801d23916282cb4/Lucifer.2019.Telugu.Original.Version.WEB-DL.1080p.AVC.UNTOUCHED.DD5.1-BWT.mkv


1GB LINKS


https://www.heroupload.com/cb0a3687771f0688/Lucifer.2019.Telugu.Original.Version.WEB-DL.1080p.AVC.UNTOUCHED.DD5.1-BWT.part1.rar
https://www.heroupload.com/155fc6194909ca3e/Lucifer.2019.Telugu.Original.Version.WEB-DL.1080p.AVC.UNTOUCHED.DD5.1-BWT.part2.rar
https://www.heroupload.com/444a9c194122a1ee/Lucifer.2019.Telugu.Original.Version.WEB-DL.1080p.AVC.UNTOUCHED.DD5.1-BWT.part3.rar
https://www.heroupload.com/ae30169c74990a80/Lucifer.2019.Telugu.Original.Version.WEB-DL.1080p.AVC.UNTOUCHED.DD5.1-BWT.part4.rar
https://www.heroupload.com/42983b85dcdc9a15/Lucifer.2019.Telugu.Original.Version.WEB-DL.1080p.AVC.UNTOUCHED.DD5.1-BWT.part5.rar
https://www.heroupload.com/da74a34be3c8b132/Lucifer.2019.Telugu.Original.Version.WEB-DL.1080p.AVC.UNTOUCHED.DD5.1-BWT.part6.rar
https://www.heroupload.com/f517a207c40e3306/Lucifer.2019.Telugu.Original.Version.WEB-DL.1080p.AVC.UNTOUCHED.DD5.1-BWT.part7.rar


Buy Premium From My Links & Support Me

Add a comment

Name:* E-Mail:*
Bold Italic Underline Strike | Align left Center Align right | Insert smilies Insert link URLInsert protected URL Select color | Add Hidden Text Insert Quote Convert selected text from selection to Cyrillic (Russian) alphabet Insert spoiler
Enter the code below: *