Rss
Calendar
«    July 2019    »
MonTueWedThuFriSatSun
1234567
891011121314
15161718192021
22232425262728
293031 
Friends of the site
» » Chitralahari (2019) Telugu - 1080p - WEB-HD - AVC - DD5.1 - Esubs-BWT Exclusive
  • Author: wroser
  • |
  • Comments: 0
  • |
  • Views: 21
Chitralahari (2019) Telugu - 1080p - WEB-HD - AVC - DD5.1 - Esubs-BWT Exclusive





Format                      : Matroska
Format version              : Version 4
File size                   : 5.80 GiB
Duration                    : 1 h 59 min
Overall bit rate            : 6 951 kb/s
Encoded date                : UTC 2019-05-16 22:32:37
Writing application         : mkvmerge v33.1.0 ('Primrose') 32-bit
Writing library             : libebml v1.3.7 + libmatroska v1.5.0

Video
ID                          : 1
Format                      : AVC
Format/Info                 : Advanced Video Codec
Format profile              : High@L4
Format settings             : CABAC / 4 Ref Frames
Format settings, CABAC      : Yes
Format settings, Reference  : 4 frames
Format settings, GOP        : M=4, N=48
Codec ID                    : V_MPEG4/ISO/AVC
Duration                    : 1 h 59 min
Bit rate mode               : Constant
Bit rate                    : 6 309 kb/s
Nominal bit rate            : 10 000 kb/s
Width                       : 1 920 pixels
Height                      : 800 pixels
Display aspect ratio        : 2.40:1
Frame rate mode             : Constant
Frame rate                  : 24.000 FPS
Color space                 : YUV
Chroma subsampling          : 4:2:0
Bit depth                   : 8 bits
Scan type                   : Progressive
Bits/(Pixel*Frame)          : 0.171
Stream size                 : 5.27 GiB (91%)
Language                    : Telugu
Default                     : Yes
Forced                      : No
Color range                 : Limited
Color primaries             : BT.709
Transfer characteristics    : BT.709
Matrix coefficients         : BT.709

Audio
ID                          : 2
Format                      : E-AC-3
Format/Info                 : Enhanced AC-3
Commercial name             : Dolby Digital Plus
Codec ID                    : A_EAC3
Duration                    : 1 h 59 min
Bit rate mode               : Constant
Bit rate                    : 640 kb/s
Channel(s)                  : 6 channels
Channel layout              : L R C LFE Ls Rs
Sampling rate               : 48.0 kHz
Frame rate                  : 31.250 FPS (1536 SPF)
Compression mode            : Lossy
Stream size                 : 547 MiB (9%)
Language                    : Telugu
Service kind                : Complete Main
Default                     : Yes
Forced                      : No

Text
ID                          : 3
Format                      : UTF-8
Codec ID                    : S_TEXT/UTF8
Codec ID/Info               : UTF-8 Plain Text
Duration                    : 1 h 52 min
Bit rate                    : 72 b/s
Count of elements           : 1562
Stream size                 : 59.7 KiB (0%)
Language                    : English
Default                     : No
Forced                      : No


Chitralahari (2019) Telugu - 1080p - WEB-HD - AVC - DD5.1 - Esubs-BWT Exclusive
Chitralahari (2019) Telugu - 1080p - WEB-HD - AVC - DD5.1 - Esubs-BWT Exclusive
Chitralahari (2019) Telugu - 1080p - WEB-HD - AVC - DD5.1 - Esubs-BWT Exclusive
Chitralahari (2019) Telugu - 1080p - WEB-HD - AVC - DD5.1 - Esubs-BWT Exclusive
Chitralahari (2019) Telugu - 1080p - WEB-HD - AVC - DD5.1 - Esubs-BWT Exclusive
Chitralahari (2019) Telugu - 1080p - WEB-HD - AVC - DD5.1 - Esubs-BWT Exclusive
Chitralahari (2019) Telugu - 1080p - WEB-HD - AVC - DD5.1 - Esubs-BWT Exclusive
Chitralahari (2019) Telugu - 1080p - WEB-HD - AVC - DD5.1 - Esubs-BWT Exclusive

SINGLE DIRECT FAST LINKS

https://www.heroupload.com/30be399a713a538e/Chitralahari.2019.Telugu.WEB-DL.1080p.AVC.UNTOUCHED.DD5.1.ESub-BWT.mkv


1GB LINKS



https://www.heroupload.com/e88fc76d34d4856d/Chitralahari.2019.Telugu.WEB-DL.1080p.AVC.UNTOUCHED.DD5.1.ESub-BWT.part1.rar
https://www.heroupload.com/f09146ccbfc55cb1/Chitralahari.2019.Telugu.WEB-DL.1080p.AVC.UNTOUCHED.DD5.1.ESub-BWT.part2.rar
https://www.heroupload.com/6875519b7c02bdd2/Chitralahari.2019.Telugu.WEB-DL.1080p.AVC.UNTOUCHED.DD5.1.ESub-BWT.part3.rar
https://www.heroupload.com/88a17088ddb37c10/Chitralahari.2019.Telugu.WEB-DL.1080p.AVC.UNTOUCHED.DD5.1.ESub-BWT.part4.rar
https://www.heroupload.com/01ad5f2d96a7b280/Chitralahari.2019.Telugu.WEB-DL.1080p.AVC.UNTOUCHED.DD5.1.ESub-BWT.part5.rar
https://www.heroupload.com/43443d80e00f17c5/Chitralahari.2019.Telugu.WEB-DL.1080p.AVC.UNTOUCHED.DD5.1.ESub-BWT.part6.rar


Buy Premium From My Links & Support Me

Add a comment

Name:* E-Mail:*
Bold Italic Underline Strike | Align left Center Align right | Insert smilies Insert link URLInsert protected URL Select color | Add Hidden Text Insert Quote Convert selected text from selection to Cyrillic (Russian) alphabet Insert spoiler
Enter the code below: *