Rss
Calendar
«    June 2019    »
MonTueWedThuFriSatSun
 12
3456789
10111213141516
17181920212223
24252627282930
Friends of the site
» » Kuppathu Raja (2019) Tamil - 1080p - WEB-HD - AVC - DD5.1 - Esubs-BWT Exclusive
  • Author: wroser
  • |
  • Comments: 0
  • |
  • Views: 10
Kuppathu Raja (2019) Tamil - 1080p - WEB-HD - AVC - DD5.1 - Esubs-BWT Exclusive





Format                      : MPEG-4
Format profile              : Base Media / Version 2
Codec ID                    : mp42 (mp42/mp41)
File size                   : 8.75 GiB
Duration                    : 2 h 0 min
Overall bit rate            : 10.4 Mb/s
Encoded date                : UTC 2019-05-17 21:21:47
Tagged date                 : UTC 2019-05-17 21:26:58
TIM                         : 00:00:00:00
TSC                         : 24
TSZ                         : 1

Video
ID                          : 1
Format                      : AVC
Format/Info                 : Advanced Video Codec
Format profile              : Main@L4.1
Format settings             : CABAC / 4 Ref Frames
Format settings, CABAC      : Yes
Format settings, Reference  : 4 frames
Codec ID                    : avc1
Codec ID/Info               : Advanced Video Coding
Duration                    : 2 h 0 min
Bit rate                    : 9 906 kb/s
Width                       : 1 920 pixels
Height                      : 1 080 pixels
Display aspect ratio        : 16:9
Frame rate mode             : Constant
Frame rate                  : 24.000 FPS
Color space                 : YUV
Chroma subsampling          : 4:2:0
Bit depth                   : 8 bits
Scan type                   : Progressive
Bits/(Pixel*Frame)          : 0.199
Stream size                 : 8.32 GiB (95%)
Language                    : English
Encoded date                : UTC 2019-05-17 21:21:47
Tagged date                 : UTC 2019-05-17 21:21:47
Color range                 : Limited
Color primaries             : BT.709
Transfer characteristics    : BT.709
Matrix coefficients         : BT.709
Codec configuration box     : avcC

Audio
ID                          : 2
Format                      : AC-3
Format/Info                 : Audio Coding 3
Commercial name             : Dolby Digital
Codec ID                    : ac-3
Duration                    : 2 h 0 min
Source duration             : 2 h 0 min
Bit rate mode               : Constant
Bit rate                    : 512 kb/s
Channel(s)                  : 6 channels
Channel layout              : L R C LFE Ls Rs
Sampling rate               : 48.0 kHz
Frame rate                  : 31.250 FPS (1536 SPF)
Bit depth                   : 16 bits
Compression mode            : Lossy
Stream size                 : 440 MiB (5%)
Source stream size          : 440 MiB (5%)
Language                    : English
Service kind                : Complete Main
Encoded date                : UTC 2019-05-17 21:21:47
Tagged date                 : UTC 2019-05-17 21:21:47



Kuppathu Raja (2019) Tamil - 1080p - WEB-HD - AVC - DD5.1 - Esubs-BWT ExclusiveKuppathu Raja (2019) Tamil - 1080p - WEB-HD - AVC - DD5.1 - Esubs-BWT ExclusiveKuppathu Raja (2019) Tamil - 1080p - WEB-HD - AVC - DD5.1 - Esubs-BWT ExclusiveKuppathu Raja (2019) Tamil - 1080p - WEB-HD - AVC - DD5.1 - Esubs-BWT ExclusiveKuppathu Raja (2019) Tamil - 1080p - WEB-HD - AVC - DD5.1 - Esubs-BWT Exclusive

SINGLE DIRECT FAST LINKS

https://www.heroupload.com/c875f7c06870767a/Kuppathu.Raja.2019.Tamil.WEB-DL.1080p.AVC.DD5.1-BWT.mp4


1GB LINKS


https://www.heroupload.com/b6fe64493298533a/Kuppathu.Raja.2019.Tamil.WEB-DL.1080p.AVC.DD5.1-BWT.part01.rar
https://www.heroupload.com/182e36bc0f7acb84/Kuppathu.Raja.2019.Tamil.WEB-DL.1080p.AVC.DD5.1-BWT.part02.rar
https://www.heroupload.com/01f193ca9bd9c948/Kuppathu.Raja.2019.Tamil.WEB-DL.1080p.AVC.DD5.1-BWT.part03.rar
https://www.heroupload.com/d093444b21fd6824/Kuppathu.Raja.2019.Tamil.WEB-DL.1080p.AVC.DD5.1-BWT.part04.rar
https://www.heroupload.com/2dab89f8071bf69b/Kuppathu.Raja.2019.Tamil.WEB-DL.1080p.AVC.DD5.1-BWT.part05.rar
https://www.heroupload.com/d0a6c7210dcc1f64/Kuppathu.Raja.2019.Tamil.WEB-DL.1080p.AVC.DD5.1-BWT.part06.rar
https://www.heroupload.com/f81edf2055f2765d/Kuppathu.Raja.2019.Tamil.WEB-DL.1080p.AVC.DD5.1-BWT.part07.rar
https://www.heroupload.com/5320e2d38b4975f1/Kuppathu.Raja.2019.Tamil.WEB-DL.1080p.AVC.DD5.1-BWT.part08.rar
https://www.heroupload.com/165ad4345b166b07/Kuppathu.Raja.2019.Tamil.WEB-DL.1080p.AVC.DD5.1-BWT.part09.rar





Buy Premium From My Links & Support Me

Add a comment

Name:* E-Mail:*
Bold Italic Underline Strike | Align left Center Align right | Insert smilies Insert link URLInsert protected URL Select color | Add Hidden Text Insert Quote Convert selected text from selection to Cyrillic (Russian) alphabet Insert spoiler
Enter the code below: *