Rss
Calendar
«    June 2019    »
MonTueWedThuFriSatSun
 12
3456789
10111213141516
17181920212223
24252627282930
Friends of the site
» » Kanchana 3 (2019) Tamil - 720p - HDRip - x264 - ESubs-MTR
  • Author: wroser
  • |
  • Comments: 0
  • |
  • Views: 7
Kanchana 3 (2019) Tamil - 720p - HDRip - x264 - ESubs-MTR




Format                      : Matroska
Format version              : Version 4
File size                   : 1.40 GiB
Duration                    : 2 h 39 min
Overall bit rate            : 1 256 kb/s
Encoded date                : UTC 2019-05-18 16:17:49 / UTC 2019-05-18T02:45:38Z
Writing application         : mkvmerge v33.1.0 ('Primrose') 32-bit
Writing library             : libebml v1.3.7 + libmatroska v1.5.0 / Lavf57.7.2

Video
ID                          : 1
Format                      : AVC
Format/Info                 : Advanced Video Codec
Format profile              : Main@L4
Format settings             : CABAC / 4 Ref Frames
Format settings, CABAC      : Yes
Format settings, Reference  : 4 frames
Codec ID                    : V_MPEG4/ISO/AVC
Duration                    : 2 h 39 min
Bit rate                    : 1 093 kb/s
Width                       : 1 280 pixels
Height                      : 570 pixels
Display aspect ratio        : 2.25:1
Frame rate mode             : Constant
Frame rate                  : 24.000 FPS
Color space                 : YUV
Chroma subsampling          : 4:2:0
Bit depth                   : 8 bits
Scan type                   : Progressive
Bits/(Pixel*Frame)          : 0.062
Stream size                 : 1.19 GiB (85%)
Writing library             : x264 core 155 r2901 7d0ff22
Encoding settings           : cabac=1 / ref=2 / deblock=1:0:0 / analyse=0x1:0x111 / me=hex / subme=4 / psy=1 / psy_rd=1.00:0.00 / mixed_ref=0 / me_range=16 / chroma_me=1 / trellis=1 / 8x8dct=0 / cqm=0 / deadzone=21,11 / fast_pskip=1 / chroma_qp_offset=0 / threads=18 / lookahead_threads=4 / sliced_threads=0 / nr=0 / decimate=1 / interlaced=0 / bluray_compat=0 / constrained_intra=0 / bframes=3 / b_pyramid=2 / b_adapt=1 / b_bias=0 / direct=1 / weightb=1 / open_gop=0 / weightp=1 / keyint=240 / keyint_min=24 / scenecut=40 / intra_refresh=0 / rc_lookahead=20 / rc=abr / mbtree=1 / bitrate=1093 / ratetol=1.0 / qcomp=0.60 / qpmin=0 / qpmax=69 / qpstep=4 / vbv_maxrate=20000 / vbv_bufsize=25000 / nal_hrd=none / filler=0 / ip_ratio=1.40 / aq=1:1.00
Default                     : Yes
Forced                      : No
Color range                 : Limited
Color primaries             : BT.601 NTSC
Transfer characteristics    : BT.709
Matrix coefficients         : BT.601
Statistics Tags Issue       : mkvmerge v33.1.0 ('Primrose') 32-bit 2019-05-18 16:17:49 / mkvmerge v33.1.0 ('Primrose') 32-bit 2019-05-18 16:17:49 / UTC 2019-05-18T02:45:38Z
FromStats_BitRate           : 1094440
FromStats_Duration          : 02:39:21.334000000
FromStats_FrameCount        : 229472
FromStats_StreamSize        : 1308039203

Audio
ID                          : 2
Format                      : MPEG Audio
Format version              : Version 1
Format profile              : Layer 3
Format settings             : Joint stereo / MS Stereo
Codec ID                    : A_MPEG/L3
Codec ID/Hint               : MP3
Duration                    : 2 h 39 min
Bit rate mode               : Constant
Bit rate                    : 160 kb/s
Channel(s)                  : 2 channels
Sampling rate               : 48.0 kHz
Compression mode            : Lossy
Stream size                 : 182 MiB (13%)
Writing library             : LAME3.100
Language                    : English
Default                     : Yes
Forced                      : No
Statistics Tags Issue       : mkvmerge v33.1.0 ('Primrose') 32-bit 2019-05-18 16:17:49 / mkvmerge v33.1.0 ('Primrose') 32-bit 2019-05-18 16:17:49 / UTC 2019-05-18T02:45:38Z
FromStats_BitRate           : 160000
FromStats_Duration          : 02:39:21.456000000
FromStats_FrameCount        : 398394
FromStats_StreamSize        : 191229120



Kanchana 3 (2019) Tamil - 720p - HDRip - x264 - ESubs-MTRKanchana 3 (2019) Tamil - 720p - HDRip - x264 - ESubs-MTRKanchana 3 (2019) Tamil - 720p - HDRip - x264 - ESubs-MTRKanchana 3 (2019) Tamil - 720p - HDRip - x264 - ESubs-MTR

SINGLE DIRECT FAST LINKS



https://www.heroupload.com/a6e9a8352adeef6b/Kanchana.3.2019.Tamil.720p.HDRip.x264.ESubs-MTR.mkv





Buy Premium From My Links & Support Me

Add a comment

Name:* E-Mail:*
Bold Italic Underline Strike | Align left Center Align right | Insert smilies Insert link URLInsert protected URL Select color | Add Hidden Text Insert Quote Convert selected text from selection to Cyrillic (Russian) alphabet Insert spoiler
Enter the code below: *