Rss
Calendar
«    June 2019    »
MonTueWedThuFriSatSun
 12
3456789
10111213141516
17181920212223
24252627282930
Friends of the site
» » Puriyaadha Pudhir (2017) 1080p UNCUT WEB-HD AVC ESubs [Dual Audio][Hindi+Tamil] BHD
  • Author: wroser
  • |
  • Comments: 0
  • |
  • Views: 8
Puriyaadha Pudhir (2017) 1080p UNCUT WEB-HD AVC ESubs [Dual Audio][Hindi+Tamil] BHD





Format                      : Matroska
Format version              : Version 4
File size                   : 1.54 GiB
Duration                    : 2 h 0 min
Overall bit rate            : 1 834 kb/s
Encoded date                : UTC 2019-05-16 20:56:37
Writing application         : mkvmerge v20.0.0 ('I Am The Sun') 64-bit
Writing library             : libebml v1.3.5 + libmatroska v1.4.8
FileExtension_Invalid       : mkv mk3d mka mks

Video
ID                          : 1
Format                      : AVC
Format/Info                 : Advanced Video Codec
Format profile              : High@L4
Format settings             : CABAC / 3 Ref Frames
Format settings, CABAC      : Yes
Format settings, Reference  : 3 frames
Codec ID                    : V_MPEG4/ISO/AVC
Duration                    : 2 h 0 min
Bit rate                    : 1 512 kb/s
Width                       : 1 920 pixels
Height                      : 1 080 pixels
Display aspect ratio        : 16:9
Frame rate mode             : Constant
Frame rate                  : 25.000 FPS
Color space                 : YUV
Chroma subsampling          : 4:2:0
Bit depth                   : 8 bits
Scan type                   : Progressive
Bits/(Pixel*Frame)          : 0.029
Stream size                 : 1.27 GiB (82%)
Default                     : Yes
Forced                      : No
Color range                 : Limited
Color primaries             : BT.709
Transfer characteristics    : BT.709
Matrix coefficients         : BT.709

Audio #1
ID                          : 2
Format                      : AC-3
Format/Info                 : Audio Coding 3
Commercial name             : Dolby Digital
Codec ID                    : A_AC3
Duration                    : 2 h 0 min
Bit rate mode               : Constant
Bit rate                    : 192 kb/s
Channel(s)                  : 2 channels
Channel layout              : L R
Sampling rate               : 48.0 kHz
Frame rate                  : 31.250 FPS (1536 SPF)
Bit depth                   : 16 bits
Compression mode            : Lossy
Stream size                 : 165 MiB (10%)
Language                    : Hindi
Service kind                : Complete Main
Default                     : Yes
Forced                      : No

Audio #2
ID                          : 3
Format                      : AAC LC
Format/Info                 : Advanced Audio Codec Low Complexity
Codec ID                    : A_AAC-2
Duration                    : 2 h 0 min
Bit rate                    : 128 kb/s
Channel(s)                  : 2 channels
Channel layout              : L R
Sampling rate               : 44.1 kHz
Frame rate                  : 43.066 FPS (1024 SPF)
Compression mode            : Lossy
Stream size                 : 110 MiB (7%)
Language                    : Tamil
Default                     : No
Forced                      : No

Text
ID                          : 4
Format                      : UTF-8
Codec ID                    : S_TEXT/UTF8
Codec ID/Info               : UTF-8 Plain Text
Duration                    : 1 h 56 min
Bit rate                    : 43 b/s
Count of elements           : 1187
Stream size                 : 37.1 KiB (0%)
Language                    : English
Default                     : Yes
Forced                      : No



Puriyaadha Pudhir (2017) 1080p UNCUT WEB-HD AVC ESubs [Dual Audio][Hindi+Tamil] BHD
Puriyaadha Pudhir (2017) 1080p UNCUT WEB-HD AVC ESubs [Dual Audio][Hindi+Tamil] BHD
Puriyaadha Pudhir (2017) 1080p UNCUT WEB-HD AVC ESubs [Dual Audio][Hindi+Tamil] BHD
Puriyaadha Pudhir (2017) 1080p UNCUT WEB-HD AVC ESubs [Dual Audio][Hindi+Tamil] BHD
SINGLE DIRECT FAST LINKS


https://www.heroupload.com/6e10cf9d55dc1625/Puriyatha.Puthir.2017.1080p.HDRip.AVC.ESubs.Hindi.DD.2.0+Tamil.DD2.0-BHD.mp4




Buy Premium From My Links & Support Me

Add a comment

Name:* E-Mail:*
Bold Italic Underline Strike | Align left Center Align right | Insert smilies Insert link URLInsert protected URL Select color | Add Hidden Text Insert Quote Convert selected text from selection to Cyrillic (Russian) alphabet Insert spoiler
Enter the code below: *