Rss
Calendar
«    June 2019    »
MonTueWedThuFriSatSun
 12
3456789
10111213141516
17181920212223
24252627282930
Friends of the site
» » Petta (2019) 720p UNCUT HDRip x264 ESubs [Dual Audio][Hindi+Telugu] - BHD
  • Author: wroser
  • |
  • Comments: 0
  • |
  • Views: 8
Petta (2019) 720p UNCUT HDRip x264 ESubs [Dual Audio][Hindi+Telugu] - BHD






Media
Format : Matroska
Format version : Version 4 / Version 2
File size : 1.64 GiB
Duration : 2 h 49 min
Overall bit rate : 1 380 kb/s
Encoded date : UTC 2019-05-18 22:03:12
Writing application : mkvmerge v20.0.0 ('I Am The Sun') 64-bit
Writing library : libebml v1.3.5 + libmatroska v1.4.8

Video
ID : 1
Format : AVC
Format/Info : Advanced Video Codec
Format profile : High@L3.1
Format settings : CABAC / 4 Ref Frames
Format settings, CABAC : Yes
Format settings, RefFrames : 4 frames
Codec ID : V_MPEG4/ISO/AVC
Duration : 2 h 49 min
Width : 1 280 pixels
Height : 528 pixels
Display aspect ratio : 2.40:1
Frame rate mode : Constant
Frame rate : 24.000 FPS
Color space : YUV
Chroma subsampling : 4:2:0
Bit depth : 8 bits
Scan type : Progressive
Bits/(Pixel*Frame) : 0.066
Stream size : 1.25 GiB (77%)
Writing library : x264 core
Default : Yes
Forced : No

Audio #1
ID : 2
Format : AC-3
Format/Info : Audio Coding 3
Codec ID : A_AC3
Duration : 2 h 49 min
Bit rate mode : Constant
Bit rate : 192 kb/s
Channel(s) : 2 channels
Channel positions : Front: L R
Sampling rate : 48.0 kHz
Frame rate : 31.250 FPS (1536 SPF)
Bit depth : 16 bits
Compression mode : Lossy
Stream size : 233 MiB (14%)
Language : Hindi
Service kind : Complete Main
Default : Yes
Forced : No

Audio #2
ID : 3
Format : AC-3
Format/Info : Audio Coding 3
Codec ID : A_AC3
Duration : 2 h 49 min
Bit rate mode : Constant
Bit rate : 128 kb/s
Channel(s) : 6 channels
Channel positions : Front: L C R, Side: L R, LFE
Sampling rate : 44.1 kHz
Frame rate : 28.711 FPS (1536 SPF)
Bit depth : 16 bits
Compression mode : Lossy
Stream size : 155 MiB (9%)
Language : Telugu
Service kind : Complete Main
Default : No
Forced : No

Text
ID : 4
Format : UTF-8
Codec ID : S_TEXT/UTF8
Codec ID/Info : UTF-8 Plain Text
Duration : 2 h 44 min
Bit rate : 58 b/s
Count of elements : 2340
Stream size : 71.0 KiB (0%)
Language : English
Default : No
Forced : No 


Petta (2019) 720p UNCUT HDRip x264 ESubs [Dual Audio][Hindi+Telugu] - BHD
Petta (2019) 720p UNCUT HDRip x264 ESubs [Dual Audio][Hindi+Telugu] - BHD
Petta (2019) 720p UNCUT HDRip x264 ESubs [Dual Audio][Hindi+Telugu] - BHD
Petta (2019) 720p UNCUT HDRip x264 ESubs [Dual Audio][Hindi+Telugu] - BHD
Petta (2019) 720p UNCUT HDRip x264 ESubs [Dual Audio][Hindi+Telugu] - BHD
Petta (2019) 720p UNCUT HDRip x264 ESubs [Dual Audio][Hindi+Telugu] - BHD
Petta (2019) 720p UNCUT HDRip x264 ESubs [Dual Audio][Hindi+Telugu] - BHD
Petta (2019) 720p UNCUT HDRip x264 ESubs [Dual Audio][Hindi+Telugu] - BHD

SINGLE DIRECT FAST LINKS


https://www.heroupload.com/44fc6afd36fe0609/Petta.2019._720p.UNCUT.HDRip.x264.ESubs.Hindi.DD2.0+Telugu.DD5.1.Exclusive-BHD.mkv




Buy Premium From My Links & Support Me

Add a comment

Name:* E-Mail:*
Bold Italic Underline Strike | Align left Center Align right | Insert smilies Insert link URLInsert protected URL Select color | Add Hidden Text Insert Quote Convert selected text from selection to Cyrillic (Russian) alphabet Insert spoiler
Enter the code below: *