Rss
Calendar
«    June 2019    »
MonTueWedThuFriSatSun
 12
3456789
10111213141516
17181920212223
24252627282930
Friends of the site
» » Rangu Paduddi (2019) Telugu - 1080p - WEB-DL - AVC - UNTOUCHED - AAC-TMV
  • Author: wroser
  • |
  • Comments: 0
  • |
  • Views: 21
Rangu Paduddi (2019) Telugu - 1080p - WEB-DL - AVC - UNTOUCHED - AAC-TMV





Format                      : Matroska
Format version              : Version 4
File size                   : 3.70 GiB
Duration                    : 1 h 23 min
Overall bit rate            : 6 336 kb/s
Encoded date                : UTC 2019-05-27 14:53:28
Writing application         : mkvmerge v33.1.0 ('Primrose') 64-bit
Writing library             : libebml v1.3.7 + libmatroska v1.5.0

Video
ID                          : 1
Format                      : AVC
Format/Info                 : Advanced Video Codec
Format profile              : High@L4
Format settings             : CABAC / 4 Ref Frames
Format settings, CABAC      : Yes
Format settings, Reference  : 4 frames
Codec ID                    : V_MPEG4/ISO/AVC
Duration                    : 1 h 23 min
Bit rate mode               : Constant
Bit rate                    : 6 208 kb/s
Nominal bit rate            : 10 000 kb/s
Width                       : 1 920 pixels
Height                      : 816 pixels
Display aspect ratio        : 2.35:1
Frame rate mode             : Constant
Frame rate                  : 24.000 FPS
Color space                 : YUV
Chroma subsampling          : 4:2:0
Bit depth                   : 8 bits
Scan type                   : Progressive
Bits/(Pixel*Frame)          : 0.165
Stream size                 : 3.63 GiB (98%)
Language                    : English
Default                     : Yes
Forced                      : No
Color range                 : Limited
Color primaries             : BT.709
Transfer characteristics    : BT.709
Matrix coefficients         : BT.709

Audio
ID                          : 2
Format                      : AAC LC
Format/Info                 : Advanced Audio Codec Low Complexity
Codec ID                    : A_AAC-2
Duration                    : 1 h 23 min
Bit rate                    : 125 kb/s
Channel(s)                  : 2 channels
Channel layout              : L R
Sampling rate               : 48.0 kHz
Frame rate                  : 46.875 FPS (1024 SPF)
Compression mode            : Lossy
Stream size                 : 75.0 MiB (2%)
Title                       : Telugu
Language                    : Telugu
Default                     : Yes
Forced                      : No

Text
ID                          : 3
Format                      : UTF-8
Codec ID                    : S_TEXT/UTF8
Codec ID/Info               : UTF-8 Plain Text
Duration                    : 1 h 17 min
Bit rate                    : 69 b/s
Count of elements           : 897
Stream size                 : 39.5 KiB (0%)
Title                       : English (SDH)
Language                    : English
Default                     : No
Forced                      : No



Rangu Paduddi (2019) Telugu - 1080p - WEB-DL - AVC - UNTOUCHED - AAC-TMVRangu Paduddi (2019) Telugu - 1080p - WEB-DL - AVC - UNTOUCHED - AAC-TMVRangu Paduddi (2019) Telugu - 1080p - WEB-DL - AVC - UNTOUCHED - AAC-TMVRangu Paduddi (2019) Telugu - 1080p - WEB-DL - AVC - UNTOUCHED - AAC-TMVRangu Paduddi (2019) Telugu - 1080p - WEB-DL - AVC - UNTOUCHED - AAC-TMVRangu Paduddi (2019) Telugu - 1080p - WEB-DL - AVC - UNTOUCHED - AAC-TMVRangu Paduddi (2019) Telugu - 1080p - WEB-DL - AVC - UNTOUCHED - AAC-TMV

SINGLE DIRECT FAST LINKS

https://www.heroupload.com/093a056c28413142/Rangu.Paduddi.2019.Telugu.WEB-DL.1080p.AVC.UNTOUCHED.AAC.ESub-TMV.mkv


1GB LINKS



https://www.heroupload.com/2d93fcb08eeb1b65/Rangu.Paduddi.2019.Telugu.WEB-DL.1080p.AVC.UNTOUCHED.AAC.ESub-TMV.part1.rar
https://www.heroupload.com/4e1a51990f48a2ae/Rangu.Paduddi.2019.Telugu.WEB-DL.1080p.AVC.UNTOUCHED.AAC.ESub-TMV.part2.rar
https://www.heroupload.com/f42a91da6d3c87a9/Rangu.Paduddi.2019.Telugu.WEB-DL.1080p.AVC.UNTOUCHED.AAC.ESub-TMV.part3.rar
https://www.heroupload.com/b44a04acffd6ede2/Rangu.Paduddi.2019.Telugu.WEB-DL.1080p.AVC.UNTOUCHED.AAC.ESub-TMV.part4.rar



Buy Premium From My Links & Support Me

Add a comment

Name:* E-Mail:*
Bold Italic Underline Strike | Align left Center Align right | Insert smilies Insert link URLInsert protected URL Select color | Add Hidden Text Insert Quote Convert selected text from selection to Cyrillic (Russian) alphabet Insert spoiler
Enter the code below: *