Rss
Calendar
«    June 2019    »
MonTueWedThuFriSatSun
 12
3456789
10111213141516
17181920212223
24252627282930
Friends of the site
» » Kanchana 3 (2019) v2 - Tamil - 720p - HDRip - x264 - ESubs-MTR
  • Author: wroser
  • |
  • Comments: 0
  • |
  • Views: 16
Kanchana 3 (2019) v2 - Tamil - 720p - HDRip - x264 - ESubs-MTR





Format                      : Matroska
Format version              : Version 4
File size                   : 1.43 GiB
Duration                    : 2 h 42 min
Overall bit rate            : 1 265 kb/s
Encoded date                : UTC 2019-05-30 23:24:57
Writing application         : mkvmerge v33.1.0 ('Primrose') 32-bit
Writing library             : libebml v1.3.7 + libmatroska v1.5.0

Video
ID                          : 1
Format                      : AVC
Format/Info                 : Advanced Video Codec
Format profile              : High@L3.1
Format settings             : CABAC / 4 Ref Frames
Format settings, CABAC      : Yes
Format settings, Reference  : 4 frames
Codec ID                    : V_MPEG4/ISO/AVC
Duration                    : 2 h 42 min
Bit rate                    : 1 143 kb/s
Width                       : 1 280 pixels
Height                      : 544 pixels
Display aspect ratio        : 2.35:1
Frame rate mode             : Constant
Frame rate                  : 25.000 FPS
Color space                 : YUV
Chroma subsampling          : 4:2:0
Bit depth                   : 8 bits
Scan type                   : Progressive
Bits/(Pixel*Frame)          : 0.066
Stream size                 : 1.29 GiB (90%)
Writing library             : x264 core 157 r2935 545de2f
Encoding settings           : cabac=1 / ref=2 / deblock=1:0:0 / analyse=0x3:0x113 / me=hex / subme=6 / psy=1 / psy_rd=1.00:0.00 / mixed_ref=1 / me_range=16 / chroma_me=1 / trellis=1 / 8x8dct=1 / cqm=0 / deadzone=21,11 / fast_pskip=1 / chroma_qp_offset=-2 / threads=17 / lookahead_threads=2 / sliced_threads=0 / nr=0 / decimate=1 / interlaced=0 / bluray_compat=0 / constrained_intra=0 / bframes=3 / b_pyramid=2 / b_adapt=1 / b_bias=0 / direct=1 / weightb=1 / open_gop=0 / weightp=1 / keyint=250 / keyint_min=25 / scenecut=40 / intra_refresh=0 / rc_lookahead=30 / rc=abr / mbtree=1 / bitrate=1143 / ratetol=1.0 / qcomp=0.60 / qpmin=0 / qpmax=69 / qpstep=4 / ip_ratio=1.40 / aq=1:1.00
Default                     : Yes
Forced                      : No

Audio
ID                          : 2
Format                      : AAC LC
Format/Info                 : Advanced Audio Codec Low Complexity
Codec ID                    : A_AAC-2
Duration                    : 2 h 42 min
Bit rate                    : 126 kb/s
Channel(s)                  : 2 channels
Channel layout              : L R
Sampling rate               : 44.1 kHz
Frame rate                  : 43.066 FPS (1024 SPF)
Compression mode            : Lossy
Stream size                 : 146 MiB (10%)
Language                    : Tamil
Default                     : Yes
Forced                      : No

Text
ID                          : 3
Format                      : UTF-8
Codec ID                    : S_TEXT/UTF8
Codec ID/Info               : UTF-8 Plain Text
Duration                    : 2 h 38 min
Bit rate                    : 58 b/s
Count of elements           : 1957
Stream size                 : 67.8 KiB (0%)
Language                    : English
Default                     : Yes
Forced                      : No



Kanchana 3 (2019) v2 - Tamil - 720p - HDRip - x264 - ESubs-MTRKanchana 3 (2019) v2 - Tamil - 720p - HDRip - x264 - ESubs-MTRKanchana 3 (2019) v2 - Tamil - 720p - HDRip - x264 - ESubs-MTRKanchana 3 (2019) v2 - Tamil - 720p - HDRip - x264 - ESubs-MTR


SINGLE DIRECT FAST LINKS


https://www.heroupload.com/27ad95469af9f2ee/Kanchana.3.2019.Tamil.720p.HDRip.x264.ESubs-MTR.mkv





Buy Premium From My Links & Support Me

Add a comment

Name:* E-Mail:*
Bold Italic Underline Strike | Align left Center Align right | Insert smilies Insert link URLInsert protected URL Select color | Add Hidden Text Insert Quote Convert selected text from selection to Cyrillic (Russian) alphabet Insert spoiler
Enter the code below: *