Rss
Calendar
«    June 2019    »
MonTueWedThuFriSatSun
 12
3456789
10111213141516
17181920212223
24252627282930
Friends of the site
» » Kanchana 3 (2019) Tamil - 1080p - WEB-HD - AVC - DD5.1 - ESubs-MTR
  • Author: wroser
  • |
  • Comments: 0
  • |
  • Views: 14
Kanchana 3 (2019) Tamil - 1080p - WEB-HD - AVC - DD5.1 - ESubs-MTR






Format                      : Matroska
Format version              : Version 4
File size                   : 5.91 GiB
Duration                    : 2 h 42 min
Overall bit rate            : 5 222 kb/s
Encoded date                : UTC 2019-05-30 23:29:51
Writing application         : mkvmerge v33.1.0 ('Primrose') 32-bit
Writing library             : libebml v1.3.7 + libmatroska v1.5.0

Video
ID                          : 1
Format                      : AVC
Format/Info                 : Advanced Video Codec
Format profile              : Baseline@L4
Format settings             : 1 Ref Frames
Format settings, CABAC      : No
Format settings, Reference  : 1 frame
Codec ID                    : V_MPEG4/ISO/AVC
Duration                    : 2 h 42 min
Bit rate mode               : Constant
Bit rate                    : 5 120 kb/s
Width                       : 1 920 pixels
Height                      : 1 080 pixels
Display aspect ratio        : 16:9
Frame rate mode             : Constant
Frame rate                  : 25.000 FPS
Color space                 : YUV
Chroma subsampling          : 4:2:0
Bit depth                   : 8 bits
Scan type                   : Progressive
Bits/(Pixel*Frame)          : 0.099
Stream size                 : 5.77 GiB (98%)
Language                    : English
Default                     : Yes
Forced                      : No

Audio
ID                          : 2
Format                      : AAC LC
Format/Info                 : Advanced Audio Codec Low Complexity
Codec ID                    : A_AAC-2
Duration                    : 2 h 42 min
Bit rate                    : 126 kb/s
Channel(s)                  : 2 channels
Channel layout              : L R
Sampling rate               : 44.1 kHz
Frame rate                  : 43.066 FPS (1024 SPF)
Compression mode            : Lossy
Stream size                 : 146 MiB (2%)
Language                    : English
Default                     : Yes
Forced                      : No





Kanchana 3 (2019) Tamil - 1080p - WEB-HD - AVC - DD5.1 - ESubs-MTR
Kanchana 3 (2019) Tamil - 1080p - WEB-HD - AVC - DD5.1 - ESubs-MTR
Kanchana 3 (2019) Tamil - 1080p - WEB-HD - AVC - DD5.1 - ESubs-MTR
Kanchana 3 (2019) Tamil - 1080p - WEB-HD - AVC - DD5.1 - ESubs-MTR
Kanchana 3 (2019) Tamil - 1080p - WEB-HD - AVC - DD5.1 - ESubs-MTR
Kanchana 3 (2019) Tamil - 1080p - WEB-HD - AVC - DD5.1 - ESubs-MTR




SINGLE DIRECT FAST LINKS

https://www.heroupload.com/696000e36aff8e5d/Kanchana.3.2019.Tamil.1080p.HD.AVC.MP4.ESubs-MTR.mkv


1GB LINKS


https://www.heroupload.com/45c509ad71259b14/Kanchana.3.2019.Tamil.1080p.HD.AVC.MP4.ESubs-MTR.part1.rar
https://www.heroupload.com/e144bc4e71e84845/Kanchana.3.2019.Tamil.1080p.HD.AVC.MP4.ESubs-MTR.part2.rar
https://www.heroupload.com/437104d40bc8b347/Kanchana.3.2019.Tamil.1080p.HD.AVC.MP4.ESubs-MTR.part3.rar
https://www.heroupload.com/d7b88da55b92a687/Kanchana.3.2019.Tamil.1080p.HD.AVC.MP4.ESubs-MTR.part4.rar
https://www.heroupload.com/e1e8a244d76523c9/Kanchana.3.2019.Tamil.1080p.HD.AVC.MP4.ESubs-MTR.part5.rar
https://www.heroupload.com/bd7bca0a398bc6b3/Kanchana.3.2019.Tamil.1080p.HD.AVC.MP4.ESubs-MTR.part6.rar
https://www.heroupload.com/ff9f3039e9735e50/Kanchana.3.2019.Tamil.1080p.HD.AVC.MP4.ESubs-MTR.srt




Buy Premium From My Links & Support Me

Add a comment

Name:* E-Mail:*
Bold Italic Underline Strike | Align left Center Align right | Insert smilies Insert link URLInsert protected URL Select color | Add Hidden Text Insert Quote Convert selected text from selection to Cyrillic (Russian) alphabet Insert spoiler
Enter the code below: *