Rss
Calendar
«    June 2019    »
MonTueWedThuFriSatSun
 12
3456789
10111213141516
17181920212223
24252627282930
Friends of the site
» » KEE (2019) 1080p - WEB-HDRip - x264 - Esubs [Dual Audio][Telugu-Line+Tamil] - TMV
  • Author: wroser
  • |
  • Comments: 0
  • |
  • Views: 25
KEE (2019) 1080p - WEB-HDRip - x264 - Esubs [Dual Audio][Telugu-Line+Tamil] - TMV




Format                      : Matroska
Format version              : Version 4
File size                   : 2.57 GiB
Duration                    : 2 h 11 min
Overall bit rate            : 2 803 kb/s
Encoded date                : UTC 2019-06-05 15:44:43
Writing application         : mkvmerge v33.1.0 ('Primrose') 32-bit
Writing library             : libebml v1.3.7 + libmatroska v1.5.0

Video
ID                          : 1
Format                      : AVC
Format/Info                 : Advanced Video Codec
Format profile              : High@L4
Format settings             : CABAC / 4 Ref Frames
Format settings, CABAC      : Yes
Format settings, Reference  : 4 frames
Codec ID                    : V_MPEG4/ISO/AVC
Duration                    : 2 h 11 min
Bit rate                    : 2 500 kb/s
Width                       : 1 920 pixels
Height                      : 816 pixels
Display aspect ratio        : 2.35:1
Frame rate mode             : Constant
Frame rate                  : 24.000 FPS
Color space                 : YUV
Chroma subsampling          : 4:2:0
Bit depth                   : 8 bits
Scan type                   : Progressive
Bits/(Pixel*Frame)          : 0.066
Stream size                 : 2.27 GiB (89%)
Writing library             : x264 core 155 r2901 7d0ff22
Encoding settings           : cabac=1 / ref=1 / deblock=1:0:0 / analyse=0x3:0x113 / me=hex / subme=2 / psy=1 / psy_rd=1.00:0.00 / mixed_ref=0 / me_range=16 / chroma_me=1 / trellis=0 / 8x8dct=1 / cqm=0 / deadzone=21,11 / fast_pskip=1 / chroma_qp_offset=0 / threads=12 / lookahead_threads=4 / sliced_threads=0 / nr=0 / decimate=1 / interlaced=0 / bluray_compat=0 / constrained_intra=0 / bframes=3 / b_pyramid=2 / b_adapt=1 / b_bias=0 / direct=1 / weightb=1 / open_gop=0 / weightp=1 / keyint=240 / keyint_min=24 / scenecut=40 / intra_refresh=0 / rc_lookahead=10 / rc=abr / mbtree=1 / bitrate=2500 / ratetol=1.0 / qcomp=0.60 / qpmin=0 / qpmax=69 / qpstep=4 / vbv_maxrate=25000 / vbv_bufsize=31250 / nal_hrd=none / filler=0 / ip_ratio=1.40 / aq=1:1.00
Language                    : Tamil
Default                     : Yes
Forced                      : No
Color range                 : Limited
Color primaries             : BT.709
Transfer characteristics    : BT.709
Matrix coefficients         : BT.709

Audio #1
ID                          : 2
Format                      : AC-3
Format/Info                 : Audio Coding 3
Commercial name             : Dolby Digital
Codec ID                    : A_AC3
Duration                    : 2 h 11 min
Bit rate mode               : Constant
Bit rate                    : 96.0 kb/s
Channel(s)                  : 2 channels
Channel layout              : L R
Sampling rate               : 48.0 kHz
Frame rate                  : 31.250 FPS (1536 SPF)
Bit depth                   : 16 bits
Compression mode            : Lossy
Delay relative to video     : -5 ms
Stream size                 : 90.1 MiB (3%)
Language                    : Telugu
Service kind                : Complete Main
Default                     : Yes
Forced                      : No

Audio #2
ID                          : 3
Format                      : E-AC-3
Format/Info                 : Enhanced AC-3
Commercial name             : Dolby Digital Plus
Codec ID                    : A_EAC3
Duration                    : 2 h 11 min
Bit rate mode               : Constant
Bit rate                    : 224 kb/s
Channel(s)                  : 6 channels
Channel layout              : L R C LFE Ls Rs
Sampling rate               : 48.0 kHz
Frame rate                  : 31.250 FPS (1536 SPF)
Compression mode            : Lossy
Stream size                 : 210 MiB (8%)
Language                    : Tamil
Service kind                : Complete Main
Default                     : No
Forced                      : No

Text
ID                          : 4
Format                      : UTF-8
Codec ID                    : S_TEXT/UTF8
Codec ID/Info               : UTF-8 Plain Text
Duration                    : 2 h 6 min
Bit rate                    : 63 b/s
Count of elements           : 1855
Stream size                 : 59.0 KiB (0%)
Language                    : English
Default                     : No
Forced                      : No




KEE (2019) 1080p - WEB-HDRip - x264 - Esubs [Dual Audio][Telugu-Line+Tamil] - TMV
KEE (2019) 1080p - WEB-HDRip - x264 - Esubs [Dual Audio][Telugu-Line+Tamil] - TMV
KEE (2019) 1080p - WEB-HDRip - x264 - Esubs [Dual Audio][Telugu-Line+Tamil] - TMV
KEE (2019) 1080p - WEB-HDRip - x264 - Esubs [Dual Audio][Telugu-Line+Tamil] - TMV
KEE (2019) 1080p - WEB-HDRip - x264 - Esubs [Dual Audio][Telugu-Line+Tamil] - TMV
KEE (2019) 1080p - WEB-HDRip - x264 - Esubs [Dual Audio][Telugu-Line+Tamil] - TMV

SINGLE DIRECT FAST LINKS


https://www.heroupload.com/627a956c382e56e6/KEE.2019.HDRip.1080p.Telugu.Line+Tamil.ESub-TMV.mkv



Buy Premium From My Links & Support Me

Add a comment

Name:* E-Mail:*
Bold Italic Underline Strike | Align left Center Align right | Insert smilies Insert link URLInsert protected URL Select color | Add Hidden Text Insert Quote Convert selected text from selection to Cyrillic (Russian) alphabet Insert spoiler
Enter the code below: *