Rss
Calendar
«    June 2019    »
MonTueWedThuFriSatSun
 12
3456789
10111213141516
17181920212223
24252627282930
Friends of the site
» » KEE (2019) Tamil - 1080p - WEB-DL- AVC - DD5.1 - ESubs-BWT
  • Author: wroser
  • |
  • Comments: 0
  • |
  • Views: 18
KEE (2019) Tamil - 1080p - WEB-DL- AVC - DD5.1 - ESubs-BWT




Format                      : MPEG-4
Format profile              : Base Media / Version 2
Codec ID                    : mp42 (mp42/mp41)
File size                   : 7.77 GiB
Duration                    : 2 h 11 min
Overall bit rate            : 8 476 kb/s
Encoded date                : UTC 2019-06-03 15:08:26
Tagged date                 : UTC 2019-06-03 15:15:02
TIM                         : 00:00:00:00
TSC                         : 24
TSZ                         : 1

Video
ID                          : 1
Format                      : AVC
Format/Info                 : Advanced Video Codec
Format profile              : Main@L4.1
Format settings             : CABAC / 4 Ref Frames
Format settings, CABAC      : Yes
Format settings, Reference  : 4 frames
Codec ID                    : avc1
Codec ID/Info               : Advanced Video Coding
Duration                    : 2 h 11 min
Bit rate                    : 7 962 kb/s
Width                       : 1 920 pixels
Height                      : 1 080 pixels
Display aspect ratio        : 16:9
Frame rate mode             : Constant
Frame rate                  : 24.000 FPS
Color space                 : YUV
Chroma subsampling          : 4:2:0
Bit depth                   : 8 bits
Scan type                   : Progressive
Bits/(Pixel*Frame)          : 0.160
Stream size                 : 7.30 GiB (94%)
Language                    : English
Encoded date                : UTC 2019-06-03 15:08:26
Tagged date                 : UTC 2019-06-03 15:08:26
Color range                 : Limited
Color primaries             : BT.709
Transfer characteristics    : BT.709
Matrix coefficients         : BT.709
Codec configuration box     : avcC

Audio
ID                          : 2
Format                      : AC-3
Format/Info                 : Audio Coding 3
Commercial name             : Dolby Digital
Codec ID                    : ac-3
Duration                    : 2 h 11 min
Source duration             : 2 h 11 min
Bit rate mode               : Constant
Bit rate                    : 512 kb/s
Channel(s)                  : 6 channels
Channel layout              : L R C LFE Ls Rs
Sampling rate               : 48.0 kHz
Frame rate                  : 31.250 FPS (1536 SPF)
Bit depth                   : 16 bits
Compression mode            : Lossy
Stream size                 : 481 MiB (6%)
Source stream size          : 481 MiB (6%)
Language                    : English
Service kind                : Complete Main
Encoded date                : UTC 2019-06-03 15:08:26
Tagged date                 : UTC 2019-06-03 15:08:26




KEE (2019) Tamil - 1080p - WEB-DL- AVC - DD5.1 - ESubs-BWT
KEE (2019) Tamil - 1080p - WEB-DL- AVC - DD5.1 - ESubs-BWT
KEE (2019) Tamil - 1080p - WEB-DL- AVC - DD5.1 - ESubs-BWT
KEE (2019) Tamil - 1080p - WEB-DL- AVC - DD5.1 - ESubs-BWT
KEE (2019) Tamil - 1080p - WEB-DL- AVC - DD5.1 - ESubs-BWT
KEE (2019) Tamil - 1080p - WEB-DL- AVC - DD5.1 - ESubs-BWT

SINGLE DIRECT FAST LINKS

https://www.heroupload.com/0173d16a14e59ae1/KEE.2019.Tamil.WEB-DL.1080p.AVC.UNTOUCHED.DD5.1-BWT.mp4


1GB LINKS



https://www.heroupload.com/fc7bbbeb498abcc5/KEE.2019.Tamil.WEB-DL.1080p.AVC.UNTOUCHED.DD5.1-BWT.part1.rar
https://www.heroupload.com/2035760748f864f2/KEE.2019.Tamil.WEB-DL.1080p.AVC.UNTOUCHED.DD5.1-BWT.part2.rar
https://www.heroupload.com/e85eab02c8dccbbc/KEE.2019.Tamil.WEB-DL.1080p.AVC.UNTOUCHED.DD5.1-BWT.part3.rar
https://www.heroupload.com/53a42b2e6644b10e/KEE.2019.Tamil.WEB-DL.1080p.AVC.UNTOUCHED.DD5.1-BWT.part4.rar
https://www.heroupload.com/d7e39065306585d1/KEE.2019.Tamil.WEB-DL.1080p.AVC.UNTOUCHED.DD5.1-BWT.part5.rar
https://www.heroupload.com/111849e127b44af4/KEE.2019.Tamil.WEB-DL.1080p.AVC.UNTOUCHED.DD5.1-BWT.part6.rar
https://www.heroupload.com/17a8830bacf7f8be/KEE.2019.Tamil.WEB-DL.1080p.AVC.UNTOUCHED.DD5.1-BWT.part7.rar
https://www.heroupload.com/0b3a70327b86a835/KEE.2019.Tamil.WEB-DL.1080p.AVC.UNTOUCHED.DD5.1-BWT.part8.rar
https://www.heroupload.com/635a77275ad87f04/KEE.2019.Tamil.WEB-DL.1080p.AVC.UNTOUCHED.DD5.1-BWT.srt




Buy Premium From My Links & Support Me

Add a comment

Name:* E-Mail:*
Bold Italic Underline Strike | Align left Center Align right | Insert smilies Insert link URLInsert protected URL Select color | Add Hidden Text Insert Quote Convert selected text from selection to Cyrillic (Russian) alphabet Insert spoiler
Enter the code below: *