Rss
Calendar
«    June 2019    »
MonTueWedThuFriSatSun
 12
3456789
10111213141516
17181920212223
24252627282930
Friends of the site
» » Khiladi ki Jung - Kanche (2019) Hindi - 1080p - WEB-HD - AVC - AAC-Aditya Exclusive
  • Author: wroser
  • |
  • Comments: 0
  • |
  • Views: 18
Khiladi ki Jung - Kanche (2019) Hindi - 1080p - WEB-HD - AVC - AAC-Aditya Exclusive





Format                                   : MPEG-4
Format profile                           : Base Media
Codec ID                                 : isom (isom/iso2/avc1/mp41)
File size                                : 1.80 GiB
Duration                                 : 2 h 0 min
Overall bit rate                         : 2 146 kb/s
Writing application                      : Lavf58.9.100

Video
ID                                       : 1
Format                                   : AVC
Format/Info                              : Advanced Video Codec
Format profile                           : High@L4
Format settings                          : CABAC / 3 Ref Frames
Format settings, CABAC                   : Yes
Format settings, RefFrames               : 3 frames
Codec ID                                 : avc1
Codec ID/Info                            : Advanced Video Coding
Duration                                 : 2 h 0 min
Bit rate                                 : 2 012 kb/s
Width                                    : 1 920 pixels
Height                                   : 1 080 pixels
Display aspect ratio                     : 16:9
Frame rate mode                          : Constant
Frame rate                               : 24.000 FPS
Color space                              : YUV
Chroma subsampling                       : 4:2:0
Bit depth                                : 8 bits
Scan type                                : Progressive
Bits/(Pixel*Frame)                       : 0.040
Stream size                              : 1.69 GiB (94%)
Writing library                          : x264 core 155 r2901 7d0ff22
Color range                              : Limited
Color primaries                          : BT.709
Transfer characteristics                 : BT.709
Matrix coefficients                      : BT.709
Codec configuration box                  : avcC

Audio
ID                                       : 2
Format                                   : AAC LC
Format/Info                              : Advanced Audio Codec Low Complexity
Codec ID                                 : mp4a-40-2
Duration                                 : 2 h 0 min
Bit rate mode                            : Constant
Bit rate                                 : 128 kb/s
Channel(s)                               : 2 channels
Channel layout                           : L R
Sampling rate                            : 44.1 kHz
Frame rate                               : 43.066 FPS (1024 SPF)
Compression mode                         : Lossy
Stream size                              : 110 MiB (6%)
Language                                 : English
Default                                  : Yes
Alternate group                          : 1




Khiladi ki Jung - Kanche (2019) Hindi - 1080p - WEB-HD - AVC - AAC-Aditya Exclusive
Khiladi ki Jung - Kanche (2019) Hindi - 1080p - WEB-HD - AVC - AAC-Aditya Exclusive
Khiladi ki Jung - Kanche (2019) Hindi - 1080p - WEB-HD - AVC - AAC-Aditya Exclusive
Khiladi ki Jung - Kanche (2019) Hindi - 1080p - WEB-HD - AVC - AAC-Aditya Exclusive
Khiladi ki Jung - Kanche (2019) Hindi - 1080p - WEB-HD - AVC - AAC-Aditya Exclusive

SINGLE DIRECT FAST LINKS


https://www.heroupload.com/79fa93d83c005f40/Khiladi.ki.Jung.2019.Hindi.1080p.WEB-HD..AVC.AAC-Adatiya.mp4



Buy Premium From My Links & Support Me

Add a comment

Name:* E-Mail:*
Bold Italic Underline Strike | Align left Center Align right | Insert smilies Insert link URLInsert protected URL Select color | Add Hidden Text Insert Quote Convert selected text from selection to Cyrillic (Russian) alphabet Insert spoiler
Enter the code below: *