Rss
Calendar
«    July 2019    »
MonTueWedThuFriSatSun
1234567
891011121314
15161718192021
22232425262728
293031 
Friends of the site
» » Simba (2019) Tamil - WEB-HD - 1080p - AVC - UNTOUCHED - AAC - ESub-TMV
  • Author: wroser
  • |
  • Comments: 0
  • |
  • Views: 25
Simba (2019) Tamil - WEB-HD - 1080p - AVC - UNTOUCHED - AAC - ESub-TMV




Format                      : Matroska
Format version              : Version 4
File size                   : 2.56 GiB
Duration                    : 1 h 59 min
Overall bit rate            : 3 080 kb/s
Encoded date                : UTC 2019-06-12 15:21:12
Writing application         : mkvmerge v33.1.0 ('Primrose') 32-bit
Writing library             : libebml v1.3.7 + libmatroska v1.5.0

Video
ID                          : 1
Format                      : AVC
Format/Info                 : Advanced Video Codec
Format profile              : High@L4
Format settings             : CABAC / 4 Ref Frames
Format settings, CABAC      : Yes
Format settings, Reference  : 4 frames
Codec ID                    : V_MPEG4/ISO/AVC
Duration                    : 1 h 59 min
Bit rate                    : 2 854 kb/s
Width                       : 1 920 pixels
Height                      : 816 pixels
Display aspect ratio        : 2.35:1
Frame rate mode             : Constant
Frame rate                  : 25.000 FPS
Color space                 : YUV
Chroma subsampling          : 4:2:0
Bit depth                   : 8 bits
Scan type                   : Progressive
Bits/(Pixel*Frame)          : 0.073
Stream size                 : 2.38 GiB (93%)
Language                    : Tamil
Default                     : Yes
Forced                      : No
Color range                 : Limited
Color primaries             : BT.709
Transfer characteristics    : BT.709
Matrix coefficients         : BT.709

Audio
ID                          : 2
Format                      : E-AC-3
Format/Info                 : Enhanced AC-3
Commercial name             : Dolby Digital Plus
Codec ID                    : A_EAC3
Duration                    : 1 h 59 min
Bit rate mode               : Constant
Bit rate                    : 224 kb/s
Channel(s)                  : 2 channels
Channel layout              : L R
Sampling rate               : 48.0 kHz
Frame rate                  : 31.250 FPS (1536 SPF)
Compression mode            : Lossy
Stream size                 : 191 MiB (7%)
Language                    : Tamil
Service kind                : Complete Main
Default                     : Yes
Forced                      : No

Text
ID                          : 3
Format                      : UTF-8
Codec ID                    : S_TEXT/UTF8
Codec ID/Info               : UTF-8 Plain Text
Duration                    : 1 h 53 min
Bit rate                    : 66 b/s
Count of elements           : 1819
Stream size                 : 55.3 KiB (0%)
Language                    : English
Default                     : No
Forced                      : No



Simba (2019) Tamil - WEB-HD - 1080p - AVC - UNTOUCHED - AAC - ESub-TMV
Simba (2019) Tamil - WEB-HD - 1080p - AVC - UNTOUCHED - AAC - ESub-TMV
Simba (2019) Tamil - WEB-HD - 1080p - AVC - UNTOUCHED - AAC - ESub-TMV
Simba (2019) Tamil - WEB-HD - 1080p - AVC - UNTOUCHED - AAC - ESub-TMV
Simba (2019) Tamil - WEB-HD - 1080p - AVC - UNTOUCHED - AAC - ESub-TMV

SINGLE DIRECT FAST LINKS

https://www.heroupload.com/285ba11e041f8c04/Simba.2019.Tamil.WEB-HD.1080p.AVC.AAC.ESub-TMV.mkv


700MB LINKS



https://www.heroupload.com/7a54fe9c7d38fde0/Simba.2019.Tamil.WEB-HD.1080p.AVC.AAC.ESub-TMV.part1.rar
https://www.heroupload.com/dfce68941a3997d7/Simba.2019.Tamil.WEB-HD.1080p.AVC.AAC.ESub-TMV.part2.rar
https://www.heroupload.com/e7d68e9cc61ac3c2/Simba.2019.Tamil.WEB-HD.1080p.AVC.AAC.ESub-TMV.part3.rar
https://www.heroupload.com/3c7ffd606320811f/Simba.2019.Tamil.WEB-HD.1080p.AVC.AAC.ESub-TMV.part4.rar




Buy Premium From My Links & Support Me

Add a comment

Name:* E-Mail:*
Bold Italic Underline Strike | Align left Center Align right | Insert smilies Insert link URLInsert protected URL Select color | Add Hidden Text Insert Quote Convert selected text from selection to Cyrillic (Russian) alphabet Insert spoiler
Enter the code below: *