Rss
Calendar
«    July 2019    »
MonTueWedThuFriSatSun
1234567
891011121314
15161718192021
22232425262728
293031 
Friends of the site
» » Milan Talkies (2019) 1080p - WEB-DL - AVC - DD5.1 - ESub-BWT Exclusive
  • Author: wroser
  • |
  • Comments: 0
  • |
  • Views: 35
Milan Talkies (2019) 1080p - WEB-DL - AVC - DD5.1 - ESub-BWT Exclusive




Format                      : Matroska
Format version              : Version 4
File size                   : 3.95 GiB
Duration                    : 2 h 20 min
Overall bit rate            : 4 021 kb/s
Encoded date                : UTC 2019-06-14 03:28:39
Writing application         : mkvmerge v33.1.0 ('Primrose') 32-bit
Writing library             : libebml v1.3.7 + libmatroska v1.5.0

Video
ID                          : 1
Format                      : AVC
Format/Info                 : Advanced Video Codec
Format profile              : High@L4
Format settings             : CABAC / 4 Ref Frames
Format settings, CABAC      : Yes
Format settings, Reference  : 4 frames
Codec ID                    : V_MPEG4/ISO/AVC
Duration                    : 2 h 20 min
Bit rate                    : 3 380 kb/s
Width                       : 1 920 pixels
Height                      : 800 pixels
Display aspect ratio        : 2.40:1
Frame rate mode             : Constant
Frame rate                  : 24.000 FPS
Color space                 : YUV
Chroma subsampling          : 4:2:0
Bit depth                   : 8 bits
Scan type                   : Progressive
Bits/(Pixel*Frame)          : 0.092
Stream size                 : 3.32 GiB (84%)
Language                    : Hindi
Default                     : Yes
Forced                      : No
Color range                 : Limited
Color primaries             : BT.709
Transfer characteristics    : BT.709
Matrix coefficients         : BT.709

Audio
ID                          : 2
Format                      : E-AC-3
Format/Info                 : Enhanced AC-3
Commercial name             : Dolby Digital Plus
Codec ID                    : A_EAC3
Duration                    : 2 h 20 min
Bit rate mode               : Constant
Bit rate                    : 640 kb/s
Channel(s)                  : 6 channels
Channel layout              : L R C LFE Ls Rs
Sampling rate               : 48.0 kHz
Frame rate                  : 31.250 FPS (1536 SPF)
Compression mode            : Lossy
Stream size                 : 644 MiB (16%)
Language                    : Hindi
Service kind                : Complete Main
Default                     : Yes
Forced                      : No

Text
ID                          : 3
Format                      : UTF-8
Codec ID                    : S_TEXT/UTF8
Codec ID/Info               : UTF-8 Plain Text
Duration                    : 2 h 15 min
Bit rate                    : 72 b/s
Count of elements           : 2466
Stream size                 : 72.4 KiB (0%)
Language                    : Hindi
Default                     : Yes
Forced                      : No



Milan Talkies (2019) 1080p - WEB-DL - AVC - DD5.1 - ESub-BWT Exclusive
Milan Talkies (2019) 1080p - WEB-DL - AVC - DD5.1 - ESub-BWT Exclusive
Milan Talkies (2019) 1080p - WEB-DL - AVC - DD5.1 - ESub-BWT Exclusive
Milan Talkies (2019) 1080p - WEB-DL - AVC - DD5.1 - ESub-BWT Exclusive
Milan Talkies (2019) 1080p - WEB-DL - AVC - DD5.1 - ESub-BWT Exclusive
Milan Talkies (2019) 1080p - WEB-DL - AVC - DD5.1 - ESub-BWT Exclusive
Milan Talkies (2019) 1080p - WEB-DL - AVC - DD5.1 - ESub-BWT Exclusive
Milan Talkies (2019) 1080p - WEB-DL - AVC - DD5.1 - ESub-BWT Exclusive


SINGLE DIRECT FAST LINKS

https://www.heroupload.com/5ed5c4dd62aeeb61/Milan.Talkies.2019.Hindi.WEB-DL.1080p.AVC.UNTOUCHED.DD5.1.ESub-BWT.mkv


1GB LINKS



https://www.heroupload.com/45350446dca7c95c/Milan.Talkies.2019.Hindi.WEB-DL.1080p.AVC.UNTOUCHED.DD5.1.ESub-BWT.part1.rar
https://www.heroupload.com/35deeece511566c1/Milan.Talkies.2019.Hindi.WEB-DL.1080p.AVC.UNTOUCHED.DD5.1.ESub-BWT.part2.rar
https://www.heroupload.com/4b07dc1d446fdf3f/Milan.Talkies.2019.Hindi.WEB-DL.1080p.AVC.UNTOUCHED.DD5.1.ESub-BWT.part3.rar
https://www.heroupload.com/e47221b286c8aa70/Milan.Talkies.2019.Hindi.WEB-DL.1080p.AVC.UNTOUCHED.DD5.1.ESub-BWT.part4.rar





Buy Premium From My Links & Support Me

Add a comment

Name:* E-Mail:*
Bold Italic Underline Strike | Align left Center Align right | Insert smilies Insert link URLInsert protected URL Select color | Add Hidden Text Insert Quote Convert selected text from selection to Cyrillic (Russian) alphabet Insert spoiler
Enter the code below: *