Rss
Calendar
«    June 2019    »
MonTueWedThuFriSatSun
 12
3456789
10111213141516
17181920212223
24252627282930
Friends of the site
» » Kavacham (2018) Telugu - 720p - WEB-DL - AVC - AAC-BWT
  • Author: wroser
  • |
  • Comments: 0
  • |
  • Views: 15
Kavacham (2018) Telugu - 720p - WEB-DL - AVC - AAC-BWT




Format                      : MPEG-4
Format profile              : Base Media
Codec ID                    : isom (isom/iso2/avc1/mp41)
File size                   : 1.30 GiB
Duration                    : 2 h 18 min
Overall bit rate            : 1 337 kb/s
Writing application         : Lavf58.9.100

Video
ID                          : 1
Format                      : AVC
Format/Info                 : Advanced Video Codec
Format profile              : High@L3.1
Format settings             : CABAC / 4 Ref Frames
Format settings, CABAC      : Yes
Format settings, Reference  : 4 frames
Codec ID                    : avc1
Codec ID/Info               : Advanced Video Coding
Duration                    : 2 h 18 min
Bit rate                    : 1 219 kb/s
Width                       : 1 280 pixels
Height                      : 720 pixels
Display aspect ratio        : 16:9
Frame rate mode             : Constant
Frame rate                  : 24.000 FPS
Color space                 : YUV
Chroma subsampling          : 4:2:0
Bit depth                   : 8 bits
Scan type                   : Progressive
Bits/(Pixel*Frame)          : 0.055
Stream size                 : 1.16 GiB (90%)
Writing library             : x264 core 152 r2851 ba24899
Encoding settings           : cabac=1 / ref=4 / deblock=1:0:0 / analyse=0x3:0x113 / me=hex / subme=8 / psy=1 / psy_rd=1.00:0.00 / mixed_ref=1 / me_range=16 / chroma_me=1 / trellis=2 / 8x8dct=1 / cqm=0 / deadzone=21,11 / fast_pskip=1 / chroma_qp_offset=-2 / threads=5 / lookahead_threads=1 / sliced_threads=0 / nr=0 / decimate=1 / interlaced=0 / bluray_compat=0 / constrained_intra=0 / bframes=0 / weightp=2 / keyint=72 / keyint_min=7 / scenecut=40 / intra_refresh=0 / rc_lookahead=50 / rc=cbr / mbtree=1 / bitrate=1219 / ratetol=1.0 / qcomp=0.60 / qpmin=3 / qpmax=51 / qpstep=8 / vbv_maxrate=1219 / vbv_bufsize=4876 / nal_hrd=none / filler=0 / ip_ratio=1.40 / aq=1:1.00
Codec configuration box     : avcC

Audio
ID                          : 2
Format                      : AAC LC
Format/Info                 : Advanced Audio Codec Low Complexity
Codec ID                    : mp4a-40-2
Duration                    : 2 h 18 min
Bit rate mode               : Constant
Bit rate                    : 132 kb/s
Channel(s)                  : 2 channels
Channel layout              : L R
Sampling rate               : 44.1 kHz
Frame rate                  : 43.066 FPS (1024 SPF)
Compression mode            : Lossy
Stream size                 : 131 MiB (10%)
Default                     : Yes
Alternate group             : 1




Kavacham (2018) Telugu - 720p - WEB-DL - AVC - AAC-BWT
Kavacham (2018) Telugu - 720p - WEB-DL - AVC - AAC-BWT
Kavacham (2018) Telugu - 720p - WEB-DL - AVC - AAC-BWT
Kavacham (2018) Telugu - 720p - WEB-DL - AVC - AAC-BWT
Kavacham (2018) Telugu - 720p - WEB-DL - AVC - AAC-BWT
Kavacham (2018) Telugu - 720p - WEB-DL - AVC - AAC-BWT
Kavacham (2018) Telugu - 720p - WEB-DL - AVC - AAC-BWT
Kavacham (2018) Telugu - 720p - WEB-DL - AVC - AAC-BWT
Kavacham (2018) Telugu - 720p - WEB-DL - AVC - AAC-BWT


SINGLE DIRECT FAST LINKS



https://www.heroupload.com/db54b05bd4ad4795/Kavacham.2018.Telugu.WEB-DL.720p.AVC.UNTOUCHED.AAC-BWT.mp4





Buy Premium From My Links & Support Me

Add a comment

Name:* E-Mail:*
Bold Italic Underline Strike | Align left Center Align right | Insert smilies Insert link URLInsert protected URL Select color | Add Hidden Text Insert Quote Convert selected text from selection to Cyrillic (Russian) alphabet Insert spoiler
Enter the code below: *