Rss
Calendar
«    June 2019    »
MonTueWedThuFriSatSun
 12
3456789
10111213141516
17181920212223
24252627282930
Friends of the site
» » Ayogya (2019) Tamil - 1080p - WEB-DL - AVC - DD5.1 - ESub-BWT Exclusive
  • Author: wroser
  • |
  • Comments: 0
  • |
  • Views: 9
Ayogya (2019) Tamil - 1080p - WEB-DL - AVC - DD5.1 - ESub-BWT Exclusive





Format                      : MPEG-4
Codec ID                    : M4V  (M4V /M4A /mp42/isom)
File size                   : 8.65 GiB
Duration                    : 2 h 28 min
Overall bit rate            : 8 324 kb/s
Encoded date                : UTC 2019-06-14 05:30:17
Tagged date                 : UTC 2019-06-14 05:31:36
Rating                      : None

Video
ID                          : 1
Format                      : AVC
Format/Info                 : Advanced Video Codec
Format profile              : Main@L4.2
Format settings             : CABAC / 3 Ref Frames
Format settings, CABAC      : Yes
Format settings, Reference  : 3 frames
Format settings, GOP        : M=4, N=24
Codec ID                    : avc1
Codec ID/Info               : Advanced Video Coding
Duration                    : 2 h 28 min
Source duration             : 2 h 28 min
Bit rate                    : 7 873 kb/s
Width                       : 1 920 pixels
Height                      : 1 080 pixels
Display aspect ratio        : 16:9
Frame rate mode             : Variable
Frame rate                  : 24.000 FPS
Minimum frame rate          : 24.000 FPS
Maximum frame rate          : 24.024 FPS
Standard                    : NTSC
Color space                 : YUV
Chroma subsampling          : 4:2:0
Bit depth                   : 8 bits
Scan type                   : Progressive
Bits/(Pixel*Frame)          : 0.158
Stream size                 : 8.18 GiB (95%)
Source stream size          : 8.18 GiB (95%)
Language                    : English
Encoded date                : UTC 2019-06-14 05:30:17
Tagged date                 : UTC 2019-06-14 05:31:36
Color range                 : Limited
Color primaries             : BT.709
Transfer characteristics    : BT.709
Matrix coefficients         : BT.709
Codec configuration box     : avcC

Audio
ID                          : 2
Format                      : AC-3
Format/Info                 : Audio Coding 3
Commercial name             : Dolby Digital
Codec ID                    : ac-3
Duration                    : 2 h 28 min
Bit rate mode               : Constant
Bit rate                    : 448 kb/s
Channel(s)                  : 6 channels
Channel layout              : L R C LFE Ls Rs
Sampling rate               : 48.0 kHz
Frame rate                  : 31.250 FPS (1536 SPF)
Bit depth                   : 16 bits
Compression mode            : Lossy
Stream size                 : 476 MiB (5%)
Service kind                : Complete Main
Default                     : Yes
Alternate group             : 1
Encoded date                : UTC 2019-06-14 05:30:17
Tagged date                 : UTC 2019-06-14 05:30:22



Ayogya (2019) Tamil - 1080p - WEB-DL - AVC - DD5.1 - ESub-BWT Exclusive
Ayogya (2019) Tamil - 1080p - WEB-DL - AVC - DD5.1 - ESub-BWT Exclusive
Ayogya (2019) Tamil - 1080p - WEB-DL - AVC - DD5.1 - ESub-BWT Exclusive
Ayogya (2019) Tamil - 1080p - WEB-DL - AVC - DD5.1 - ESub-BWT Exclusive
Ayogya (2019) Tamil - 1080p - WEB-DL - AVC - DD5.1 - ESub-BWT Exclusive
Ayogya (2019) Tamil - 1080p - WEB-DL - AVC - DD5.1 - ESub-BWT Exclusive
SINGLE DIRECT FAST LINKS

https://www.heroupload.com/d495c695f7613b61/Ayogya.2019.Tamil.WEB-DL.1080p.AVC.UNTOUCHED.DD5.1.ESub-BWT.m4v


1GB LINKS



https://www.heroupload.com/f72f20c6f64eda04/Ayogya.2019.Tamil.WEB-DL.1080p.AVC.UNTOUCHED.DD5.1.ESub-BWT.part01.rar
https://www.heroupload.com/8e3faa644f531246/Ayogya.2019.Tamil.WEB-DL.1080p.AVC.UNTOUCHED.DD5.1.ESub-BWT.part02.rar
https://www.heroupload.com/7faa73fed0aa8ef7/Ayogya.2019.Tamil.WEB-DL.1080p.AVC.UNTOUCHED.DD5.1.ESub-BWT.part03.rar
https://www.heroupload.com/5525454c866edcf0/Ayogya.2019.Tamil.WEB-DL.1080p.AVC.UNTOUCHED.DD5.1.ESub-BWT.part04.rar
https://www.heroupload.com/dbdf756840c880c9/Ayogya.2019.Tamil.WEB-DL.1080p.AVC.UNTOUCHED.DD5.1.ESub-BWT.part05.rar
https://www.heroupload.com/a5d56f3ff8a2a891/Ayogya.2019.Tamil.WEB-DL.1080p.AVC.UNTOUCHED.DD5.1.ESub-BWT.part06.rar
https://www.heroupload.com/4fcc000867f8c0dc/Ayogya.2019.Tamil.WEB-DL.1080p.AVC.UNTOUCHED.DD5.1.ESub-BWT.part07.rar
https://www.heroupload.com/5bf1a2bffc855ffb/Ayogya.2019.Tamil.WEB-DL.1080p.AVC.UNTOUCHED.DD5.1.ESub-BWT.part08.rar
https://www.heroupload.com/53c697bc5bd2dc72/Ayogya.2019.Tamil.WEB-DL.1080p.AVC.UNTOUCHED.DD5.1.ESub-BWT.part09.rar
https://www.heroupload.com/b563fcdc6ef938ab/Ayogya.2019.Tamil.WEB-DL.1080p.AVC.UNTOUCHED.DD5.1.ESub-BWT.srt






Buy Premium From My Links & Support Me

Add a comment

Name:* E-Mail:*
Bold Italic Underline Strike | Align left Center Align right | Insert smilies Insert link URLInsert protected URL Select color | Add Hidden Text Insert Quote Convert selected text from selection to Cyrillic (Russian) alphabet Insert spoiler
Enter the code below: *