Rss
Calendar
«    August 2019    »
MonTueWedThuFriSatSun
 1234
567891011
12131415161718
19202122232425
262728293031 
Friends of the site
» » Godzilla: King of the Monsters (2019) 720p HD-CAMRip x264 [Hindi+Telugu+Tamil+English
  • Author: wroser
  • |
  • Comments: 0
  • |
  • Views: 44
Godzilla: King of the Monsters (2019) 720p HD-CAMRip x264 [Hindi+Telugu+Tamil+English




Format                      : Matroska
Format version              : Version 4
File size                   : 1.03 GiB
Duration                    : 2 h 1 min
Overall bit rate            : 1 212 kb/s
Encoded date                : UTC 2019-06-20 13:55:04
Writing application         : mkvmerge v33.1.0 ('Primrose') 32-bit
Writing library             : libebml v1.3.7 + libmatroska v1.5.0

Video
ID                          : 1
Format                      : AVC
Format/Info                 : Advanced Video Codec
Format profile              : High@L3.1
Format settings             : CABAC / 4 Ref Frames
Format settings, CABAC      : Yes
Format settings, Reference  : 4 frames
Codec ID                    : V_MPEG4/ISO/AVC
Duration                    : 2 h 1 min
Bit rate                    : 826 kb/s
Width                       : 1 280 pixels
Height                      : 536 pixels
Display aspect ratio        : 2.40:1
Frame rate mode             : Constant
Frame rate                  : 23.976 (24000/1001) FPS
Color space                 : YUV
Chroma subsampling          : 4:2:0
Bit depth                   : 8 bits
Scan type                   : Progressive
Bits/(Pixel*Frame)          : 0.050
Stream size                 : 719 MiB (68%)
Writing library             : x264 core 157 r2935 545de2f
Encoding settings           : cabac=1 / ref=1 / deblock=1:0:0 / analyse=0x3:0x113 / me=hex / subme=2 / psy=1 / psy_rd=1.00:0.00 / mixed_ref=0 / me_range=16 / chroma_me=1 / trellis=0 / 8x8dct=1 / cqm=0 / deadzone=21,11 / fast_pskip=1 / chroma_qp_offset=0 / threads=17 / lookahead_threads=4 / sliced_threads=0 / nr=0 / decimate=1 / interlaced=0 / bluray_compat=0 / constrained_intra=0 / bframes=3 / b_pyramid=2 / b_adapt=1 / b_bias=0 / direct=1 / weightb=1 / open_gop=0 / weightp=1 / keyint=240 / keyint_min=23 / scenecut=40 / intra_refresh=0 / rc_lookahead=10 / rc=abr / mbtree=1 / bitrate=826 / ratetol=1.0 / qcomp=0.60 / qpmin=0 / qpmax=69 / qpstep=4 / ip_ratio=1.40 / aq=1:1.00
Language                    : English
Default                     : Yes
Forced                      : No

Audio #1
ID                          : 2
Format                      : AC-3
Format/Info                 : Audio Coding 3
Commercial name             : Dolby Digital
Codec ID                    : A_AC3
Duration                    : 2 h 1 min
Bit rate mode               : Constant
Bit rate                    : 96.0 kb/s
Channel(s)                  : 2 channels
Channel layout              : L R
Sampling rate               : 48.0 kHz
Frame rate                  : 31.250 FPS (1536 SPF)
Bit depth                   : 16 bits
Compression mode            : Lossy
Stream size                 : 83.6 MiB (8%)
Language                    : Telugu
Service kind                : Complete Main
Default                     : Yes
Forced                      : No

Audio #2
ID                          : 3
Format                      : AC-3
Format/Info                 : Audio Coding 3
Commercial name             : Dolby Digital
Codec ID                    : A_AC3
Duration                    : 2 h 1 min
Bit rate mode               : Constant
Bit rate                    : 96.0 kb/s
Channel(s)                  : 2 channels
Channel layout              : L R
Sampling rate               : 44.1 kHz
Frame rate                  : 28.711 FPS (1536 SPF)
Bit depth                   : 16 bits
Compression mode            : Lossy
Stream size                 : 83.6 MiB (8%)
Language                    : Tamil
Service kind                : Complete Main
Default                     : No
Forced                      : No

Audio #3
ID                          : 4
Format                      : AC-3
Format/Info                 : Audio Coding 3
Commercial name             : Dolby Digital
Codec ID                    : A_AC3
Duration                    : 2 h 1 min
Bit rate mode               : Constant
Bit rate                    : 96.0 kb/s
Channel(s)                  : 2 channels
Channel layout              : L R
Sampling rate               : 48.0 kHz
Frame rate                  : 31.250 FPS (1536 SPF)
Bit depth                   : 16 bits
Compression mode            : Lossy
Stream size                 : 83.6 MiB (8%)
Language                    : Hindi
Service kind                : Complete Main
Default                     : No
Forced                      : No

Audio #4
ID                          : 5
Format                      : AC-3
Format/Info                 : Audio Coding 3
Commercial name             : Dolby Digital
Codec ID                    : A_AC3
Duration                    : 2 h 1 min
Bit rate mode               : Constant
Bit rate                    : 96.0 kb/s
Channel(s)                  : 2 channels
Channel layout              : L R
Sampling rate               : 48.0 kHz
Frame rate                  : 31.250 FPS (1536 SPF)
Bit depth                   : 16 bits
Compression mode            : Lossy
Stream size                 : 83.6 MiB (8%)
Language                    : English
Service kind                : Complete Main
Default                     : No
Forced                      : No



Godzilla: King of the Monsters (2019) 720p HD-CAMRip x264 [Hindi+Telugu+Tamil+English
Godzilla: King of the Monsters (2019) 720p HD-CAMRip x264 [Hindi+Telugu+Tamil+English
Godzilla: King of the Monsters (2019) 720p HD-CAMRip x264 [Hindi+Telugu+Tamil+English
Godzilla: King of the Monsters (2019) 720p HD-CAMRip x264 [Hindi+Telugu+Tamil+English
Godzilla: King of the Monsters (2019) 720p HD-CAMRip x264 [Hindi+Telugu+Tamil+English
Godzilla: King of the Monsters (2019) 720p HD-CAMRip x264 [Hindi+Telugu+Tamil+English
Godzilla: King of the Monsters (2019) 720p HD-CAMRip x264 [Hindi+Telugu+Tamil+English
Godzilla: King of the Monsters (2019) 720p HD-CAMRip x264 [Hindi+Telugu+Tamil+English

SINGLE DIRECT FAST LINKS


https://www.heroupload.com/0e8d29db33ccac36/Godzilla.King.of.the.Monsters.2019.HDCAM.720p.Line.Telugu+Tamil+Hindi+English.mkv




Buy Premium From My Links & Support Me

Add a comment

Name:* E-Mail:*
Bold Italic Underline Strike | Align left Center Align right | Insert smilies Insert link URLInsert protected URL Select color | Add Hidden Text Insert Quote Convert selected text from selection to Cyrillic (Russian) alphabet Insert spoiler
Enter the code below: *